&title=「1」
&artist=164
&first=0
&des=Snorkel
&lv_5=12
&inote_5=(145)
{1},,
{16}3h[16:3],,,4h[16:3],,,5h[16:2],,7,,7,,
6h[16:3],,,5h[16:3],,,4h[16:2],,3,4,3,,
2h[16:3],,,3h[16:3],,,4h[16:2],,6,,6,,
7h[16:3],,,6h[16:3],,,5h[16:2],,3b-5[8:1],,,,
4V26[4:1],,,2,,,1,,1-7[8:1],,,,
6pp4[8:3],,,4,,,3,,3>8[8:1],,,,
4pp7[8:3],,,1,,,2,,2>5[8:1],,,,
7pp7[8:3],,,6,,,5,,4-2[8:1],,4,,
5pp1[8:3],,,1,,,2,,2-4[8:1],,,,
1qq5[8:3],,,5,,,4,,3>8[8:1],,,,
4pp7[8:3],,,1,,,8,,8>3[8:1],,,,
7qq4[8:3],,,4,,,3,,2h[4:1],,,,
3>8[8:1],,,4,3,,6,,7,,7,,
8<5[8:1],,,1,8,,2,,4,,3,,
5<8[4:1],,,,8>3[4:1],,,,3<6[4:1],,,,
6p3[2:1],,,,,,,,2,,2,,
1>4[8:1],,,8,1,,7,,5h[4:1],,,,
6v3[4:1],,,,3<6[4:1],,,,6,,,,
2v7[4:1],,,,7>2[4:1],,,,2,,,,
5-1[8:2]*-1[8:2],,,,,,,,6,,6,,
6<1[8:1],,,5,6,,3,,2,,2,,
1>4[8:1],,,8,1,,7,,5,,6,,
4>1[4:1],,,,1<6[4:1],,,,6>3[4:1],,,,
3q6[2:1],,,,,,,,7,,7,,
8<5[8:1],,,1,8,,2,,4h[4:1],,,,
3v6[4:1],,,,6>3[4:1],,,,3,,,,
7v2[4:1],,,,2<7[4:1],,,,7,,,,
4-8[4:1]*-8[4:1],,,,,,,,3,,3,,
3b-5[16:1],,,2b-6[16:1],,,1b,,1>4[8:1],,,8,
1,,7,,6h[8:1],,5h[8:1],,4h[8:1],,3h[8:1],,
6b-4[16:1],,,7b-3[16:1],,,8b,,8<5[8:1],,,1,
8,,2,,3h[8:1],,4h[8:1],,5h[8:1],,6h[8:1],,
(150)
{16}
7b-4[16:1],,,8,,,1b<6[16:1],,,2,,,
3qq7[2:1],,,,,,4,,4,,,,
5h[8:3],,,,6,,6,,,,1b-5[8:1]/8b-4[8:1],,
2b/7b,,,,,,3-8[8:1]/7-4[8:1],,26,,3b/7b,,
,,1-5[8:1]/5,,2,,1/3-8[8:1],,4,,7<4[8:1]/3,,
6,,1h[4:1],,,,3v8[8:1],,24,,3/5V31[4:1],,
,,7,,6,,5-8[8:1],,,,5/1>4[8:1],,
2,,1/7,,6-3[8:1],,6,,7pp2[2:1],,7,,
,,4,,5,,6,,,,5w1[8:1],,
37,,5,,,,37,,2-7[8:1]/6-3[8:1],,3/7-2[8:1],,
26,,,,6,,6h[8:2],,,,2,,
7-2[8:1]/3-6[8:1],,6/2-7[8:1],,73,,,,3,,3h[8:2],,
,,7,,5,4,5,4,5,,3p6[4:1]/6q3[4:1],,
27,,3>5[8:3]/6<4[8:3],,,,,,,,,,
,,6-1[8:1]/2-5[8:1],,73,,6b/2b,,,,8-4[8:1]/4,,
7,,8/6-1[8:1],,5,,2>5[8:1]/6,,3,,8h[4:1],,
,,6v1[8:1],,75,,6/4V68[4:1],,,,2,,3
,,4-1[8:1],,,,8<5[8:1]/4,,7,,82,,
3,,3v6[8:1],,4,,4-8[8:1],,,,1,,
1h[4:1],,,,{12}2,3,4,5,6,7,
{8}8-5[4:1]/1,,1,,2<7[4:1],,
3,3-8[4:1],,4,4-7[4:1],,
5h[4:1],,,,8-4[8:1]/6,,
8/1-5[8:1],2,{16}1/6>3[8:1],,,7,6,,8,,
1<6[8:1]/2,,,3,1,,4,,4h[4:1]/5,,,,
3-6[8:1],,2,2,3,,,,1h[4:1],,,,
8>3[8:1],,,7,8,,6,,45,,,6,
3,,6,,4,5,4,5,4,5,3b-6[8:1]/6b,,
,,7>2[8:1],,7,,3<6[8:1],,3,,7-2[8:1],,
7,,1bv4[8:1],,,,5<8[8:1],,5,,1>4[8:1],,
1,,5v8[8:1],,5,,2b-7[8:1],,,,6>3[8:1],,
6,,2<7[8:1],,2,,6-3[8:1],,6,,4bv1[8:1],,
,,8<5[8:1],,8,,4>1[8:1],,4,,8v5[8:1],,
7b,,,,6h[2:1],,,,5,,4,,
3h[16:3],,,4,3,,3,,7h[16:3],,,5,6,,6,,
2h[4:1],,,,4,3,4,,2b/5b-8[4:1],,,,
1,,2,,3<6[8:1],,,4,3,,,,
7>2[8:1],,,8,7,,3,,4-1[8:1]/5-8[8:1],,36,45,
,,,,2h[8:1]/5h[8:1],,,3h[8:1]/4h[8:1],,,2b/5b,,
2b/5b,,6,,7h[8:1]/4h[8:1],,,6h[8:1]/5h[8:1],,,7b/4b,,
7b/4b,,3,,6,,{24}3,4,5,{16}6,6,5,,6>3[4:15],,,,6b,,,,
