&title=PRAGMATISM -RESURRECTION-
&artist=Laur
&first=0
&des=ペースト絵@皆伝
&des_5=ペースト絵@皆伝
&lv_5=14
&lv_6=14+
&inote_5=(174){4},,,,{48}B6,
B5,{16},{48},{8}2,,B7,,2,{4}B5,
{48}B3,B4,{16},{48},{8}7,,B2,,7,6,5,
B2,5,,5/2,,2,{4}3,
{24}B7,Ch[24:17],{4},{24},{8}B2,,B3,{4}B4,
{1}6pp1[4:3],
3q5[4:3],
6qq6<1[4:3],
2>5-1[8:5]*<7-3[8:5],
{4}B6f,B3,{8}C,B2,{4}B7,
{8}E4f,{4},{8}B6/B5,{4}B3/B2,B8,
{8}B2f,{4},{8}B6,,{16}B3,B2,{4}B1,
{8}B7f,{4},{8}B3f,{4},B5f,
{8}B1f,{4},{16}B3,B4,{8}B5,B7/B8,{4}B2,
{8}B4f,{4},{8}B3/B4,{4}B7/E7,B2,
{3}E8f,{12}B6,{6},{12}C,,{4}B1,
{1}Ch[1:1],
{16},,,4,{8}5,4,{16}5,4,6,3,{8}7,2,
4/5,3,5/4,6,3,4,5,6,
5/4,3,5/4,6,3,5,4,6,
5/4,6,5/4,3,5,4,6,3,
5/4,6,5/4,3,6,2,6,4,
6/3,7,8/5,7,6/3,5,4/1,3,
{16}1,3,2,4,3,5,4,6,5,7,4,8,3,7,2,6,
{1}1/Ch[1:1],
{16},,,B6/B2,{8},B7/B3/C,{2}B1/B8/B5/B4/Ch[4:1],
{8}2,6,{16}3-8[8:1],4,{8}2,5/3,7,8,1,
2,6,{16}3,4,{8}2,4/6-1[8:1],7,6/2,3,
5,6,{16}3,4,{8}2,6/3-5[8:1],7,6/3,8,
2,6,{16}3,4,{8}2,3/6-4[8:1],7,6/2,1,
7,3,{16}6,5,{8}7,6/4-1[8:1],5,4/7,8,
7,3,{16}6,5,{8}7,4/5-8[8:1],2,3/5,4,
1,4,{16}6,5,{8}7,3/6,2,{4}3/7-1[8:1],
7/3-7[8:1],3/6-3[8:1],6/1-5[8:1],1,
{8}6,2,{16}7,8,{8}6,7/2>5[8:1],3,2/8,7,
6,2,{16}7,8,{8}6,2/7<4[8:1],3,4/7,3,
2,2,{16}7,8,{8}6,2/7>1[8:1],3,4/7,4,
8,2,{16}7,8,{8}6,7/2<8[8:1],3,2/6,7,
6,2,{16}7,8,{8}6,7/2-5[8:1],3,2/6,7,
3,7,{16}2,1,{8}3,2/7-4[8:1],6,7/4,3,
3/8,{16}3,4,{8}2,3/6,5,3/4,2,3,
{4}4/C,{8}4,C,,{16}4,4,{4}4,
{1}3/6,
{4},,,{48}B6,B5,{16},,,{48},B2,
B1,{4},{16},{48},B7,E7,{4},{16},{48},{8}A7,B6,
B4,{4},{8}E2,{4},{16}E1,B8,B7,E7,
{1}A6,
{8}B2/E3,{4},{8}B7/A7,{4},E4/B4,
{1}A6/B6/Ch[1:1],
{8},2,{16}3,4,{8}3,5/4,6,{4}7/2,
6/2>4[8:1],{8}2/6<8[8:1],5,{4}6/1>3[8:1],1/5<7[8:1],
5/4>1[8:1],{8}4/8<5[8:1],7,{4}8/4-8[8:1],4/7-4[8:1],
7/2-5[8:1],{8}2/6-1[8:1],7,{4}6/3-6[8:1],3/7>2[8:1],
7/3<6[8:1],{8}3/8-4[8:1],7,{4}2/8,{32}E3,B3,{16},,,{8}2/5,
1,5/2,6,4/5,7,6/4,8,
5/4,3,6/4,2,7/4,1,2/8,7/3,
{16}5,3,4,2,3,1,4,2,5,4,7,5,{32}8,7,6,5,4,3,2,1,
{1}8h[4:9],
,{4},,,{16}3,
1,{8}1,
{24}4/2,5,6,7,8,1,{8}2-6[4:1],1,2,3,7-3[4:1],8,
,6,{4}7-3[4:1],{8}7,8,1,2,
3/8<4[16:3],{16}6,1,{8}1p5[16:3],2,2v5[16:3],3,2,4,
B6/B5,1,B4/B3,8h[16:1],2-7[8:1]*-5[8:1],3/1,{4}2<4[8:3],
2,8V24[4:1],{8}5,6,{4}7-1[8:1],
{8}7/2V46[4:1],6,{4}2,8-4[8:1],8,
{8}3-8[8:1],7-3[8:1],3,7,2-5[8:1],6-2[8:1],2,6,
{32}7b,8,{16}1,,,{32}6b,7,{16}8,,,{32}5b,6,{16}7,,,{32}4b,5,{16}6,{8},{4}7/3>6[8:5],
{8}3,5,E7f,{16}1,2,{8}3<2[1:1],3,
4,5,{4}1,B6,C,
A2f/5<4[4:7],5,{16}4,{8},{16}3,{8},2,
{4}6,{16}7,6,{8}5,8,7,5,5,
{4}A4f/6s2>1[4:7],8-4[8:1],,3,
{8}4,5,{4}6,3,2,
{2}Cf,{8}1h[8:3],8h[4:1],{16},,,Ch[16:15],
{1},{4}7,
{8}6,5h[8:1],{16},,,3,{8},4,
{4}3,{8}4,4,,5,4,{16}5,4,
{4}6,{8}4,3,{16}4,{8},{16}5,{8},5,
{4}5,{8}4,{16}3,4,{4}2,2,
{8}4/Ch[2:1],{4},,{8}2,3,4,
{4}5<1[4:1],1q5[4:1],{2}5q1[4:1],
{16}2,3,4,5,6,8,7,6,5,4,1,2,3,4,5,6,
7/8,1,2,3,4,1,2,3,4,1,2,3,4,5,6,7,
2b,8,3,7,4,6,4,5,3,4,2,5,1,6,2,7,
{8}3b<8[4:1],6,3,2,1-5[8:1],6-1[8:1],1,6,
{4}4b>8[4:1],{16}8,7,{8}6b,,5,6,8-3[8:1],
3-8[8:1],8<2[8:3],{4},,{8}1,{16}1,8,
2b,3,4,5,6,7,8,1,3b,4,5,6,7,8,1,2,
{8}3-7[8:1],8-3[8:1],3,8,6-1[8:1],2-5[8:1],6,2,
{4}7b/E4,6b-1[8:1],6/2b-6[8:1],2b,
{16}7,8,1,2,3,6,7,8,1,2,3,4,7,8,1,2,
3,4,8,1,2,3,4,5,6,3,7,2,8,3,7,4,
{8}6b>1[4:1],3,6,7,8-4[8:1],3-8[8:1],8,3,
{4}5b<1[4:1],{16}2,3,{8}4b,,2-5[8:1],5,2,
8-4[8:1],4-7[8:1],{4}8,{8}3,2,{16}5,3,6,4,
8,7,6,5,4,3h,1h,4h,2h,5,3,6,4h,8h,5h,7h,
{8}6-2[8:1],1-6[8:1],6,1,3-8[8:1],5-2[8:1],3,5,
{4}7-4[8:1],{8}7/3-8[8:1],2,{4}3/7-3[8:1],7,
{16}2b,1,8,7,6,3b,2,1,8,7,4b,3,2,1,8,7,
6,4,5,3,4,2,5,3,8,4,7,2,6,1,5,8,
{1}4h[1:1],
,{16}A8,
D8,A7,D7,{24}A6,D6,A5,D5,A4,D4,{32}A3,D3,A2,D2,A1,D1,A8,D8,{48}A7,D7,A6,D6,A5,E5,B4,B3,B2,B1,B8,E8,
{64}A7,D7,A6,D6,A5,D5,A4,D4,A3,D3,A2,D2,A1,D1,A8,D8,A7,D7,A6,D6,A5,D5,A4,D4,A3,D3,A2,D2,A1,D1,A8,D8,A7,D7,A6,D6,A5,D5,A4,D4,A3,D3,A2,D2,A1,D1,A8,D8,A7,D7,A6,D6,A5,D5,A4,D4,A3,D3,A2,D2,A1,D1,E1,C,
{4}E5,{16}4,5,4,5,3,6,3,6,2,7,4,5,
2,7,4,5,1,8,3,6,1,8,4,6,2,8,3,6b,
A1,D2,A2,D3,{24}A3,D4,A4,D5,A5,D6,{32}A6,D7,A7,D8,A8,D1,A1,D2,{48}A2,D3,A3,D4,A4,E5,B5,B6,B7,B8,B1,E2,
{64}A2,D3,A3,D4,A4,D5,A5,D6,A6,D7,A7,D8,A8,D1,A1,D2,{48}A2,D3,A3,D4,A4,D5,A5,D6,A6,D7,A7,D8,A8,D1,A1,D2,A2,D3,{32}A3,D4,A4,D5,A5,D6,{48}A6,D7,,{24}A7,{48}E8,B8,{24},{4}C,
{16}1,3,2,7,5,6,2,4,3,8,6,7,
1,3,2,6,5,7,3,5b,3h[16:1],6h[16:1],4h[16:1],5h[16:1],{8},{16}4/5,C,
{4},,{2}B8/B7/B6/B5/B4/B3/B2/B1/Ch[2:5],
&inote_6=(174){4},,,,{32}4,
5,{16},{8}6,,6,,6,{4}5,
{32}4,3,{16},{8}2,,2,,3,4,5,
5,4,,5,,4,{4}5,
{32}6,5,{4},{16},{32}3,4,{16},,,{8}6,5,{16}4,5,
{8}4,6,5,{16}4,5,{8}3,2/6,3,4,
{32}6,5,{4},{16},{8}4,4,5,{4}3/6,
{8}6/3,{4},{8}4,,5,{4}6,
{8}6/3,{4},{8}4/5,{2}5/4,
{8}7/2b>5[4:1],{4},{16}5,6,{8}7,8,{4}2/7<4[4:1],
{32}3b,2,{16}1,{4},{8}1,{4}1/7,6/2b<7[4:1],
{32}6b,5,{16}4,{8},{16}1,8,{8}2,8/3,{16}4,7,{8}5,7,
6/2b,{16}3,4,{8}2,7b/3,{16}6,5,{8}7,{16}4b<7[4:1],6,3,5,
{32}2b,1,{16}8,{4},{16}1,8,{8}2,7/3,{4}6<1[4:1],
{32}3/6b,4,{16}5,{4},{8}2/1,{4}1/2,8/3<6[4:1],
{32}3/6b,7,{16}8,{4},{8}7,,6,{4}5,
{1}4b/5,
{16},,,1,{8}8,3,{16}5,4,6,3,{8}7,2,
7-4[8:1],2,7-1[8:1],3,7-5[8:1],2,7-2[8:1],3,
7-4[8:1],4,3-7[8:1],2,3/6-1[8:1],5,6/2-5[8:1],3,
2-8[8:1],6,2-4[8:1],7,2-7[8:1],6,2-5[8:1],5,
2/6-2[8:1],1,6/3-8[8:1],7,3/6-1[8:1],5,6/3,4,
6/5,7/6,7/8,8/1,2/4,3/5,4/6,5/7,
{16}8,6,1,5,7,4,6,3,{24}5,8,7,6,5,4,3,2,1,8,7,6,
{4}5/3h[2:1],{32}5,6,7,8,1,2,4,5,6,7,8,1,2,3,4,5,{16}6,7,{8}8,
{16}1,{8},{16}2/1,{8},3/8,{16}7,4,{8}6,5,4/2,
2-6[8:1],6-1[8:1],2,7,7-4[8:1],4-8[8:1],7,1,
,2-4[8:1],5,2v7[8:1],7,2,8,1-6[8:1],
,1,7-4[8:1],4,7,1-5[8:1],4,1,
,7<4[8:1],3>8[8:1],7,3-7[8:1],7,{4}3,
{8}2-6[8:1],6-1[8:1],2,7,7-4[8:1],4-8[8:1],7,1-5[8:1],
,1,8,1/7,2-8[8:1],5,{4}2/6-4[8:1],
{8}3v1[8:1],2,8-4[8:1],7,3-6[8:1],2,{4}8-4[8:1],
{8}4,3,2,1,8,{16}1,7,{8}2,5/1,
2-6[8:1],6-1[8:1],2,7,7-4[8:1],4-8[8:1],7,1,
,2-4[8:1],5,2v7[8:1],7,2,8,1-6[8:1],
,1,7-4[8:1],4,7,1-5[8:1],4,1,
,7<4[8:1],3>8[8:1],7,3-7[8:1],7,3,6,
2-6[8:1],6-1[8:1],2,7,7-4[8:1],4-8[8:1],7,1-5[8:1],
,1,8,1/7,2-8[8:1],5,2/6<1[2:1],2,
6,3,4,5,6,3/7,8/4,5/1,
{4}2b/6b,{8}3/6b,7b,8,{16}8b,8b,{4}8b<1[1:2]*w4[8:1],
{1}8b,
{4},,,8h[32:1],
{8}7h[32:1],{4},{8}6h[32:1],{4},{8}2/5,3/6,
5/4h[32:1],{4},{8}4/5h[32:1],{4},{16}3,6,4,5,
{1}6/3h[32:1],
{8}3<6[8:3],{4},{8}6<1[8:3],{4},5,
{1}4h[1:1],
{8},{16}3,6,{8}4,{16}4,5,3,6,3,5,2,6,3,7,
{8}2,{16}2,3,{8}2,2,2,{16}2,3,{8}2,2,
4,{16}4,3,{8}4,4,4,{16}4,3,{8}5,3/5,
4/7,{16}7,6,{8}7,7,7,{16}7,6,{8}7,7,
6,{16}6,5,{8}6,6,6,2,2/6,5,
2,7/4,6,{16}5,3,{8}3,4/6,3,{16}2,5,
{8}5,6/4,5,{16}3,5,5,3,3,6,6,2,2,7,
8/1,7,6/3,2,1/7,6,5/2,1,{24}8,4,8,4,8,4,8,4,8,4,8,4h[24:55],
{1}8h[4:9],
,{4},,,{16}4h,
4h,{8}5/4,
6<1[8:1],{16}5,4,{8}6,3-5[8:1],2,3,6,7/4,
6-1[8:1],{16}5,4,{8}6,3>8[8:1],8,3,{32}7,6,5,4,{8}3,
8/1-5[8:1],{16}2,8,{8}1,6,7-3[8:1],{16}6,8,{8}7,4,
2-5[8:1],1,2/7-4[8:1],8-4[8:1],{2}7/1-4[8:1],
{8}6<1[8:1],{16}5,4,{8}6,3-5[8:1],2,3,6,7/4,
6-1[8:1],{16}5,4,{8}6,3>8[8:1],8,3,{32}7,6,5,4,{8}3,
8/1-5[8:1],{16}2,8,{8}1,6,7-3[8:1],{16}6,8,{8}7,4,
{4}7/2-5[16:1],2/6-1[16:1],6/3-8[16:1],3/5w1[8:1],
{8}5,{4},{8}2<3[8:11],2,{16}2,4,{8}4,3,
4,{16}3,2,{4}1,{32}2,1,{16}8,,,{32}1,8,{16}7,,,{32}8,
7,6,5,{16},,{4}3<2[2:3],{8}3,{16}4,2,{8}2,1,
2,{16}3,4,{8}4,5,{4}6h[8:1],7h[8:1],
{32}8,7,6,5,{16},,{8}4/3>1[8:1],{16}4,5,{8}3,6,5/6-8[8:1],4,
{4}6,{8}3,{16}7,1,{8}8,6,{4}8/7,
{32}8/6,5/1,4/2,3h[32:13],{4},{16},,{8}7h[16:7],3h[16:5],{4},{1}8h[4:3]/4h[4:3],
{8}4,{4},{8}5,{16}5,{8},{16}4,{8},3,
2h[8:3],{4},{8}7h[2:1],{4},{8},{16}2,1,
{2}8-4[4:3],{16}8,{8},{16}7,{8},6,
5,{4},{16}4,5,{2}4,
{4}3/6,4,{8}7,6,5,4,
{4}3,4/3,5/6,5/3,
{16}4,6,4,6,3,5,2,4,1,3,2,4,3,5,4,6,
7,5,7,5,7,4,6,3,5,2,4,1,3,8,4,1,
5b,2,6,3,7b,4,8,5,7b,6,5,4,{32}1b,2,3,4,5,6,7,8,
{8}1V35[4:1],{16}7,7,{8}1,7,8V64[4:1],{16}3,3,{8}8,2,
{24}3,2,1,8,7,6,5/3,2,1,8,7,6,{16}5,4,{8}3,2-6[8:1],6-1[8:1],
2,7-4[8:1],3-7[8:1],7,3,8,{16}1,6,2,7,
{24}3,4,5,6,7,8,1/5,6,7,8,1,2,3/5,6,7,8,1,2,3/6,7,8,1,2,3,
{8}6/4-8[8:1],{16}5,8,{8}4,7-4[8:1],{16}6,2,{8}7,3>8[16:3],6,
{4}3/7<4[4:1],4>1[4:1],1<6[4:1],5,
{24}4,3,2,1,8,7,6,5,,3,2,1,8,7,6,5,{12}4,{24}1,8,7,6,5,4,
3,2,,5,4,3,2,1,8,7,6,3,{16},2,4,1,5,2,6,1,
{8}7-3[8:1],{16}1,1,{8}7,2,1>4[8:1],{16}7,7,{8}1,8,
{32}5-1[8:1],6,7,8,{16},,{32}1/5,2,3,4,{8}5V37[4:1],,5-1[8:1],6,5,
{4}8-4[8:1],{8}8,2-6[8:1],7-2[8:1],2,7<3[2:1],8,
{4}7,{16}1,8,7,6,{8}5,4,{16}6,7,8,1,
{8}2-5[8:1],3,2/6-1[8:1],7,6/3-6[8:1],4,3>8[4:1],7,
{4}8<5[4:1],{8}5>2[4:1],8,{4}2<7[4:1],{8}6,5,
{16}4,3,4,3,4,3,5,2,5,2,5,1,6,1,6,1,
6,2,7,3,8,4,1,5,8,4,7,3,6,2,5,1h[16:17],
{1}4h[1:1],
{16},,,2/5,{8},5/3,4/6,5,4/6,5,
{16}4b,{8},{16}5,{8},6,7,8,1,2,
{16}3,4,{24}5,6,7,8,1,2,3,4,5,{32}6,7,8,1,2,3,4,5,6,7,8,1,2,3,4,{64}5,6,
{4}7b,{16}2,3,7,6,3,4,6,5,2,3,7,6,
1,2,6,5,3,4,8,7,2,3,6,5,1,2,7,6,
5b,{8},{16}4,{8},3,2,1,8,7,
{12}6,5,4,{24}3,2,1,8,7,6,{32}5,4,3,2,1,8,7,6,5,4,3,2,1,8,7,6,
{4}5b,{16}4,5,2,7,4,5,3,6,4,5,2,7,
3,6,4,5,3,6,2,7,{48},1h,{24},{48}8h,{24},{48}1h,{24},2h,{12}7h[4:1],3h[48:5],{4},,{16},{64},{192},{64}1/8,
7/2,6/3,5h[64:157]/4h[64:157],
