&title=Surges
&artist=OrangeStar
&first=0
&des=Runatix
&lv_5=14.4
&inote_5=(137){4},,,,{8},2/7h[4:3],
,2,,2,,2,
,6/3h[4:3],,6,,6,,6,
,7h[4:1],,2,,6h[4:1],,3,
,5/4h[4:1],,5,,5/4h[4:1],,5h[1:1],
,4b>1[8:1],,4,,4b-1[8:1],,4b<8[4:1],
,8bp3[4:1],,3bp1[4:1],{4},,{8},4bv7[8:1],
,4h[4:1],,5bv2[8:1],,5h[4:1],
,4,4,5,5,{16}3b-7[16:1],6,3,6,{8}3,
,Cfh[8:1],{16},8bx-3v8[16:3],7,6,5,4,,,,7x,6,5,
4,3,2,1,{8}4x/8h[8:3],3h[64:1],2h[64:1],1h[64:1],{16},3/6,4,5,
{8}4,5h[16:3],{16},2,6,6,3,3,5,5,,3,6,6,
2,2,7,7,1bx>5V31[4:1],8x,7x,6x,5x,{4},{32}8x,7x,6x,5x,4x,3x,
2x,1x,{16}8xh[16:3],{8}2,2,{16}1bx-6v1[16:3],2,3,4,{8}5,,{16}2x,7,
2,7,2,7,2,7xh[16:5],{8}2h[64:1],3h[64:1],4h[64:1],{16},5,4,5,
4,5,4,5,{32}4x,3,2,1,8,7,6,5,4,3,2,1,8,7,6,5,{8}8x/4h[8:1],{32}8x,7,6,5,
4,3,2,1,8/4,5,6,7,8,1,2,3,{8}4/8h[64:1],7/3h[64:1],2/6h[64:1],{16},5,{8}4,
3/6,2/7,8/1,{16}2,7,1,8,2,7,,4,{8}5,
{16}1,8b-4[8:1],2,7,{4}1,{8}6x/E4f,2x/E8f,{16},B7/B2,{8}B6/B3,
{16}4x/5x,3x/6x,{8}2x/7x,2x/7x,{16}7x,6,5,4,6x,5,4,3,5x,4,
3,2,4x,3,2,1,{24},{12}8/4h[48:1],{24},1/5h[48:1],{12},{24}2/6h[48:1],{6},{24}2/7,{12},{16}1,
8,{8}1,7bxq3[8:1],5,3bx>7[8:1],4,7bx-3[8:1],5,
3bxV17[8:1],4,,5h[64:1],4h[64:1],3h[64:1],,3/6,
2/7,1/8,,{24}2,3,4,7,6,5,1x,{48},{16}8x,{8},{24}3,2,1,
6,7,8,4x,{48},{16}5x,{8},2bv7[12:1]/6bv3[12:1],3b<6[12:1]/7b>2[12:1],2/6,{4},{16}2,
7,2,8,2,7,2,6,3,5,4,5,3,6,3,6,
2,7,2,7,{8},8bz4[8:1]/1bs5[8:1],7/2,1/8,,2b<7[8:1],
3,4,5,6b>3[8:1],7,8,1,2b-5[8:1],
{16}1,1,{8}7b-4[8:1],{16}8,8,{8}2bv5[8:1],{16}1,1,{8}7bv4[8:1],{16}8,8,{4},{8}Cfh[8:1]/7b-3-6-1-4-7b[8:53],
{1},,,,,,,{4},,,{8},6/3h[8:1],
,3/6h[8:1],,7/2h[8:1],,2/7h[8:1],
,1h[4:1],8,7h[4:1],2,3h[4:1],6,5bv8[8:1],
,5,3,4bv1[8:1],6,4,7,8bp5<8[4:3],
,1,,2,,3,,4,
,7/3,2,1/5,6,3/7,2,5/1h[1:1],
,8b<5[8:1],,8,,8b-5[8:1],,8b>4[4:1],
,4bp7[4:1],,7bp5[4:1],{4},,{8},3b-1[8:1],
3,3/6b-8[8:1],6,6/4bv1[8:1],4,4/6,
,E7f/B6f/B7f,{16},1bxp5-1[16:3],2,3,4,5,,,,2x,3,4,
5,8x,7,6,{8}1/5h[8:3],2h[64:1],3h[64:1],4h[64:1],{16},3/6,5,4,
{8}5,7h[16:1],3h[16:1],6h[16:1],2h[16:1],5h[16:1],{16},{32}1x/5x,2,3,4,5,6,
7,8,1/5,2,3,4,5,6,7,8,1/5,2,3,4,5,6,7,8,1/5,2,3,4,{16}5h[8:1],,{32}1x,8,7,6,5,4,
3,2,1,8,7,6,{16}5/1bx-7V13-1-5[2:3],{1},{4},,,{8},3h[4:1],
,E7,,6h[4:1],,E3,
,2/7h[4:1],,B3/B4/E4,,7/2h[4:1],,B6/E6/B5,
,E4,,E6,,B3,,B6,
,E3,,E7,,B2,,B7,
,E2,,E8,,E1/B8/B1,,E4,
B3,E6,B6,E2,{16}E8,B7,E7,B6,E6,{32}1x,2x,3x,4x,5x,6x,
7x,8x,{16}1xh[16:1],{64}8,7x,{32}6x,{16},{64}2,3x,{32}4x,{16},6,3,6,3,6,4/5,{8}4/5,{16}4,5,
4,5,4b>1[8:1],5,4b<7[8:1],5,{8}4bxw8[8:1],{4},{16},B1,E2,B2,
5,3,5,3,{32}5x,6,7,8,1,2,3,4,5,6,7,8,1,2,3,4,{8}1x/5xh[8:1],{32}1x,8,7,6,
5,4,3,2,1x/5x,6,7,8,1,2,3,4,{8}5x/1xh[64:1],6/2h[64:1],7/3h[64:1],,2/7,
{16}8,1,{8}8,7/2b-4[8:1],8,2/7b-5[8:1],8,7/2,1,
{32}2/7,3,{16}4,{8}8,{32}2/7,6,{16}5,{8}1h[64:1],8h[64:1],7h[64:1],,1/5,
3/7,1/5,{16},5x/1x,2b-6[8:1]/6b-2[8:1],3/7,4/8,5/1,{4},{8}7/8,
2/1,3/4,6h[16:1]/5h[16:1],4bxv1[8:1],5,C,{16},4/5,3,6,
{8}3,2/7,{16},5,1,1,6,6,2,2,,6,3,6,
3,7,2,7,2,7,{8}8/1b>4[16:1],7/2,{48}1/8,7,6,5,{6},{8}8b<5[8:1],
7,8b>3[8:1],1,8,{4}7,{16}8,8,{48}7x,6,{12}5,
{16}1,1,{48}2x,3,{12}4,{48}8,{24},{48}8,{24},{48}2x/7x,6,{12}5,{16}1,1,{48}7x/2x,3,{12}4,{48}8,{24},{48}8,{24},{48}2x/7x,6,{12}5,
{16}1,1,{48}7x/2bxV86[4:1],3,{6}4,{24},{8}6bV42[4:1],,2b<6[4:1],,6b>2[4:1],
,2bp6[4:1],,6bp2[4:1],,2bq5[4:1],{4},{8},8bx-5-2-7-4-1-6-3-8b[8:13],
{1},{4},,,{8},Ch[4:1],
,E1/B8/B7/E7/B6/B5/E5/B4/B3/E3/B2/B1,{4},{8},E4,
{4},{8},E6,{4},{8},B3,
{4},{8},B6,{4},{8},E3,
{4},{8},E7,{4},{8},B2,
{4},{8},B7,{4},{8},E2,
{4},{8},E8,{4},{8},Ch[1:2],
{4},{8},E1/B8/B1,{4},{8},B8/B1,
{4},{8},E1,
