&title=カルペ・ディエム
&artist=舎人仁花子 & 烏森大黒
&first=0
&des=Eden
&lv_5=14+
&inote_5=(132)
{16},,,,,,,,,,,,,,,,,,,,,,,,
2>6[8:3],,,,6,,6<4[8:5],,,,4,,5,,6,,7,,8h[4:1],,,,5,,4,,3,,2,,1/7<3[8:3],,,,3,,3<7[8:3],,,,1,,2h[4:1],,,,,,
4/8>4[8:3],,,,4,,4<2[8:5],,,,1,,2,,3,,4,,4h[4:1],,,,1,,8V64[4:1]/4V28[4:1],,,,,,,,,,,,
{32}2,,2,,6,,6,,3,,3,,5,4,5,4,
{48}6x-2[16:1],7x,8x,1x,8x,7x,6x,,,,,,
{32}4hx[8:1]/6bx,,,,1,,1,,3,4,5,6,7,8,1,2,
3h[16:1],,5h[16:1],,4h[16:1],,6x,7x,8hx[16:1],,4h[16:1],,6h[16:1],,5,,5,,
7,,7,,3,,6,5,6,5,
{48}7hx[8:1],,,,,,
{64}E2,E3,E4,E5,E6,E7,E8,E1,A2,A3,A4,A5,A6,A7,A8,A1,A2,,,,,,,,,,,,,,,,
{32},,2hx[16:1]/6hx[16:1],,,3hx[16:1]/7hx[16:1],,,2xV46V82[4:1]b/6x<1[16:1],,3,4,3,4,3,,2x/6x,,,,,,,,5,,5,,3,,6,5,6,,4,5,4,,
7,,7,,4x,3x,2x-6[16:1],,8,,8,,1,,2bx/7hx[8:1],,,,
{48}5bxqq2[4:1],4x,3x,2x,1x,8x,4bx,5x,6x,7x,8x,1x,,,,,,,,,,,,,
{32}Ch[16:1],,,,,,,,
3h[4:1],,,,4,,,,5h[4:1],,,,4,,,,2,,,,6,,6,,4h[4:1],,,,5,,,,7,,,,3,,3,,5,,5,,3h[8:1],,,,4-6[16:1],,,,5,,,,3/4,,,,2,,,,1-3[16:1]/7,,,,2,,,,1/8,,,,8,,,,4,,,,4,,,,
7,6,5,4,8,1,2,3,
6h[4:1],,,,5,,,,4h[4:1],,,,5,,,,7h[4:1],,,,8,,,,1h[4:1],,,,8,,,,6h[8:1],,,,3,,3,,5,,5,,3h[8:1],,,,4-8[16:1]b,,,,5,,,,4b/3b,,,,2,,,,7,,7,,3,,3,,
{48}8x-4[16:1],7x,6x,5x,4x,3x,2x,1x,8x,7x,6x,5x,,,,,,,,,,,,,,,,,,,,,,,,,
{32}2>6[8:1],,2,,6,,6,,2,,7,,8h[8:1],,,,1x,2,3,4,8x,1,2,3,7x,8,1,2,6,,6,,
2,,2,,4-8[16:1],,4,,3hx[4:1]/5x,,,,4,,,,7x,,7x,,4,,4,,8x,7,6,5,1x,8,7,6,2x,1,8,7,3h[8:1],,,,
{48}1bxqq5[4:1],8x,7x,6x,5x,4x,8bx,1x,2x,3x,4x,5x,,,,,,,,,,,,,Ch[4:1],,,,,,,,,,,,
{32},,,,,,,,,,,,2b/6b,,,,2-5[16:1]/6-1[16:1],,,,,,,,,,,,,,,,,,,,4b/8bV64[8:1],,,,4/8,,,,,,,,2h[8:1],,,,5-2[16:1],,5,,4x/6hx[4:1],,,,5,,,,1>5[8:1],,1,,7,,7,,6hx[8:3]/1x,,,,,,,,,,,,
{48}4,3,2,1,8,7,6,5,4,3,2,1,8,7,6,5,4,3,
{32}7x,,7,,4,,3hx[8:1]/5hx[8:1],,,,,,6-8[16:1]/2-4[16:1],,5,,5,,1-5[16:1],,6x/2x,,,,,,1x/3hx[8:1],,,,6,,6,2,1,8,4x,3,2,1,
4x,,4,,8,,1hx[8:1]/7hx[8:1],,,,,,2-4[16:1]/6-8[16:1],,1,,1,,5-1[16:1],,2x/6x,,,,,,5x/7hx[16:3],,,,,,2,,2,,
{48}8,7,6,5,4,3,2,1,8,7,6,5,
{32}4hbx[8:1]/2hbx[8:1],,,,,,5hbx[8:1]/3hbx[8:1],,,,,,6bx-3[16:1]/4bx-1[16:1],,,,7bx/3bx,,,,6bx/4bx,,,,,,2hbx[16:3]/4bx,,,,,,5,4,5,,3,4,3,,
6x,,6,,7/5,,4x,,4,,5/3,,6x-1V75[4:1]/2x-5V31[4:1],,3,4,3,4,3,,6x/2x,,,,,,,,,,,,,,,,
8-3[16:1]b/7-4[16:1]b,,,,,,,,8b/7b`E8f/B7/B8/E1/E7,,,,2x,,2x,,6,,6,,3,4,3,4,2x,,2x<6[8:1],,6b,7,8,1,2x,,5b,4x,3x,2x,1x,,
5,,5,,3,,3,,7x,6,5,4,3-7[16:1],2,1x/5x,8,7,6,5,4,3x/1hx[8:1],,,,6,,6,,2,,2,,4,,4,,3,,3,,
{48}7,6,5,4,3,2,1,8,7,6,5,4,
{32}3x/1x,,,2x/4x,,,3x/5x,,,4x/6x,,,7hx[8:1]/5hx[8:1],,,,,,,,
6hx[32:1]/8hx[32:1],,,7hx[32:1]/5hx[32:1],,,6hx[32:1]/4hx[32:1],,,5hx[32:1]/3hx[32:1],,,
{48}4x/2hx[32:1],5,6,7,8,1,2,3,4,5,6,7,
{32}3,,3,,7,,7,,5,6,5,6,5,6,5,6,4,7,3,8,2bx>7[8:1],1x,2x,1x,2x,1x,2x,1x,2x,,,,
8hx[4:1],,,,,,,,5,,5,,7,,7,,3,,3,,2x/6x,,5,4,5,,3,,6b,7,8,1,2x/4hx[8:1],,1x,8,7,6,5,4,3/1,8,7,6,5,4,3,2,1x/7x,6,5,4,3x/2hx[8:1],,4x,5,6,7,8,1,2x/4bx,5,6,7,8,1,2,3,4hx[8:1],,,,
{48}8,7,6,5,4,3,2,1,8,7,6,5,
{32}4x/1hx[16:3],,,,,,4-8[16:1],,5/3,,,,6-3[16:1],,4/7,,,,1,,6/2h[4:1],,,,4,,,,5,,,,
6h[8:1]/2,,,,1-5[16:1],,8/2,,,,7,,6h[4:1]/1,,,,4,,,,3,,,,
2h[8:1]/6,,,,6-1[16:1],,7/5,,,,4,,6/3h[4:1],,,,8,,,,7,,,,
6h[8:1]/2,,,,4V68[8:1],,5/3,,,,,,1b,,2b,,3b,,,,,,,,
2h[8:1],,6,,6,,4h[8:1],,8,,8,,5h[8:1],,7,,7,,4/6,,5,,5,,4h[8:1]/6h[8:1],,,,,,
7h[8:1],,5,,5,,6h[8:1],,2,,2,,4h[8:1],,8,,8,,
5h[16:1],,1h[16:1],,7h[16:1],,3h[16:1],,1h[16:1],,5h[16:1],,8h[16:1],,4h[16:1],,6h[16:1],,2h[16:1],,4h[16:1],,8,,
1/7,,8,,8,,1/7,,8-4[16:1],,8,,1/7,,8w4[16:2],,8x,,,,,,,,,,,,,,
2b/6h[16:3],,,,,,1,2,3,4,5/6,7,8,1,5,4,3,2,1/8,7,6,5,
1,2,3,4,5/6,7,8,1,5,4,3,2,1/8,7,6,5,4x/2hx[8:1],,,,
5,4,5,4,6hx[16:1],,3,4,3,4,2hx[16:1],,8,1,8,1,7hx[16:1],,2,1,2,1,3hx[16:2],,
{48}4,5,6,7,8,1,2,3,4,5,6,7,
{64}8x/1x,2x,3x,4x,5x,6x,7x,8x,1x,2x,3x,4x,5x,6x,7x,8x,1x-5[16:1],,,,,,,,,,,,,,,,
{32}1b`Cf,,,,,,,,,,,,,,,,,,,,,,,,,,,,,,,,,,,,,,,,,,,,,,,,,,,,,,,,,,,,,,,,,,,,,,,,
6<2[4:1],,,,,,,,2<6[4:1],,,,,,,,,,,,,,,,
3,,,,3,,,,3,,,,3,,,,3,,,,7,,7,,4,,,,4,,,,4,,,,5,,5,,2,,2,,6h[8:5],,,,4,,,,3,,,,2,,,,1,,,,8qq4[4:1]*pp4[4:1],,,,8,,,,,,,,,,,,,,,,,,,,,,,,,,,,
2hx[16:1]/6hx[16:1],,,,3V17-5[16:3],4,3,,5,,5-2[16:1],,3x,,,,6x,,,,8h[8:1],,,,
1,,1,,7,8,7,8,6,5,4,3,
{48}2x/1xV73[8:1],3x,4x,5x,6x,7x,8hx[4:1],,,,,,,,,,,,
{32},,,,4>8-6[16:3],,4,,6,,6-1-3-5[16:3],,4x,,,,5hx[16:1],,,,7h[16:1],,,,
{48}8x,1x,2x,3x,4x,5x,6x,7x,8x,1x,2x,3x,4x,5hx[8:1],,,,,
{64}E3,E4,E5,E6,E7,E8,E1,E2,A3,A4,A5,A6,A7,A8,A1,A2,A3,,,,,,,,,,,,,,,,,,,,,,,,
{32},,,,2bhx[8:3]/6bhx[8:3],,,,,,,,,,,,,,,,,,,,,,,,8hbx[4:1]/4bx,,,,
{48}E5,B4,B3,E3,,,,,,,,,
{32}7,,7,,1,,1,,2hx[16:1]/6hx[16:1],,,,5,4,5,,2-6[16:1]b/6-1[16:1],,3,4,3,4,3,,2x/6x`Cf,,,,,,,,,,,,
{48}4b/8b,3,2,1,8,7,6,5,4,3,2,1,8,7,6,5,4,3,
{32}2bx/7bx,,1x,,8x,,4x/7x,,5,,6,,2x/5x,,3,,4,,1x/7x,,8,,8,,
2h[16:1],,4h[16:1],,3h[16:1],,7h[16:1],,1-5[16:1],,5,,5x,,,,
,,,,,,,,Ch[4:7],,,,,,,,,,,,,,,,,,,,,,,,,,,,,,,,,,,,,,,,,,,,,,,,,,,,,,,,
,,,,2,,2,,3x-8-2[16:2]/7x-3-5[16:2],,6,5,6,5,6,,3x/7x,,,,,,,,
3hx[8:1]/6hx[8:1],,,,,,4hx[8:1]/7hx[8:1],,,,,,5x-1[16:1]/6x-2[16:1],,,,7x/4x,,,,5x/6x,,,,,,3hx[8:1]/7hx[8:1],,,,,,
2,,2,,5,4,5,,
3,,3,,7,,7,,5,6,5,6,5,6,5,6,4,7,3,8,2bx>7[8:1],1bx,2bx,1bx,2bx,1bx,2bx,1bx,2bx,,,,
8hx[4:1],,,,,,,,5,,5,,7,,7,,3,,3,,2x/6x,,5,4,5,,3,,8b,7,6,5,4x/3hx[8:1],,6x,7,8,1,2,3,4/8,1,2,3,4,5,6,7,8x/4x,5,6,7,8/2h[8:1],,7x,6,5,4,3,2,1x/5bx,4,3,2,1,8,7,6,5hx[8:1],,,,
{48}8,7,6,5,4,3,2,1,8,7,6,5,
{32}4x/2hx[16:3],,,,,,5-1[16:1],,6/4,,,,7-4[16:1],,5/8,,,,2,,7/3h[4:1],,,,5,,,,6,,,,
7h[8:1]/3,,,,2-6[16:1],,1/3,,,,8,,7h[4:1]/2,,,,5,,,,4,,,,
3h[8:1]/7,,,,6-1[16:1],,7/5,,,,4,,6/5h[4:1],,,,8,,,,7,,,,
6h[8:1]/2,,,,4<2<4[8:2],,5/3h[16:7],,,,,,4x,,,,,,,,,,,,
5/1,,,,5/1-5[16:1],,,,,,,,5b/1b,,,,6,,,,7,,,,8/4,,,,8-4[16:1]/4,,,,,,,,8b/4b,,,,3,,,,2,,,,5x/1x-5[4:2]b,,,,,,,,,,,,,,,,,,,,,,,,
8b>8[4:2],,,,,,,,,,,,,,,,,,,,,,,,,,,,
1,2,3,4,5/1,8,7,6,
3x,,3,,4V28[8:1]/6,,7x,,7-3[16:1],,5/8,,4x,,,,7x,,,,1x,,1,,2V46[8:1]/5,,6x,,6-2[16:1]*-1[16:1],,1/7,,2bx,,,,,,,,
8x,,8,,3/7,,4x,,4,,5/6,,7hx[8:1],,,,5x,6,5,6,4bx,3,2,1,
{48}4bxpp8[4:1],5,6,7,8,1,
{64}3bx,4x,5x,6x,7x,8x,1x,2x,3hx[8:1],,,,,,,,,,,,,,,,
{32}2x,,2,,1V35[8:1]/7,,6x,,6-8[16:1],,2/5,,1x,,,,6x,,,,4x,,4,,3V17-4[16:3]/8,,7x,,7-3[16:1]b,,6/2,,3bx,,,,,,,,
5x,,5,,2/6,,1x,,1,,8/7,,6xpp1[4:1],,6,,3,,3,,2xpp5[4:1]/6x,,,,,,,,,,,,,,,,
8hbx[8:1],,,,4bx,3x,2hx[16:1],,
{48}7b,6,5,4,3,2,1,8,7,6,5,4,
{32}2,,2,,4bx,5x,6hx[16:1],,
{48}1b,2,3,4,5,6,7,8,1,2,3,4,
{32}7h[8:1],,,,4,5,4,,6,5,6,,3,4,3,4,3,4,3,4,2x,5x,1x,6x,8x,7x,2x,1x,3x,8x,4x,7x,5<3>5[4:1],6,5,6,5,6,5,6,4hx[4:1],,,,,,,,,,,,
2hx[16:2]/6x,,,,4-8[16:1],,3/5,,,,,,1h[8:1]/4,,,,7x,6,5,4,8,7,6,5,
4/1h[16:2],,,,2>8-2-4-6[4:1],,3/8,,,,,,2x/7hx[4:1],,,,,,,,,,,,
5,,5,,8,,8,,3,,3,,7,,7,,8-4[16:1]/1-5[16:1],,8/1,,7/2,,7/2,,1b>8[8:11]/8b<1[8:11]b`Cf/B1/B8/B5/B4/B6/B3/E3/E7/E1/E5,,,,
E
