&title=Cosmic Train
&artist=Shoichiro Hirata feat.SUIMI
&first=0
&lv_7=疑
&des_7=GDTape
&inote_7=
(130){4},{1},{4},,,{16}2h[16:3],
,,4h[16:3],,,{8}6h[16:3],{16},8-4[2.6538##0.2308],,,,,,,,,{8}2h[16:3],
{16},6h[16:3],,,4h[16:3],,,7h[16:3],,,{8}1-5[2.3077##0.2308],
{16}8,,,3h[16:3],,,{8}6h[16:3],{16},7-3[2.6538##0.2308],,,,,,,,,{8}1,
{16},6h[16:3],,,2h[16:3],,,4h[16:3],,,{8}2-6[2.3077##0.2308],
{16}7,,,4h[16:3],,,{8}8h[16:3],{16},5-1[2.6538##0.2308],,,,,,,,,{8}2,
{16},8h[16:3],,,4h[16:3],,,6h[16:3],,,{8}4-8[1.6154##0.2308],
{16}5,,,3h[16:3],,,{8}7,{16},5h[16:3],,,4,,,6bq3[0##1.0385]*<3[0##1.0385],
,,,,,,,,,,,,{8}3b/6b,2>5[0.2308##0.2308],
{4}2/6,{8}7,6<1[0.2308##0.2308],{4}6/2,{8}3,2-6[0.2308##0.2308],
{4}2/6,{8}4,5-2[0.2308##0.2308]*-8[0.2308##0.2308],{4}5,{8}3/7,4>1[0.2308##0.2308],
{4}4/8,{8}7,8<5[0.2308##0.2308],{4}8/4,{8}2,1-5[0.2308##0.2308],
{4}1/5,{8}6,4-7[0.2308##0.2308]*-1[0.2308##0.2308],{4}4,{8}6/2,1>4[0.2308##0.2308],
{4}1/5,{8}6,7-3[0.2308##0.2308],{4}7/3,{8}2,1-6[0.2308##0.2308],
{4}1/5,{8}7,8<5[0.2308##0.2308]*-3[0.2308##0.2308],{4}8,{8}2/6,7<4[0.2308##0.2308],
{4}7/3,{8}2,1-5[0.2308##0.2308],{4}1/5,{8}6,7-3[0.2308##0.2308],
{4}3/7,{8}2,1>4[0.2308##0.2308]*-6[0.2308##0.2308],{4}1,{8}3/7,4,
{4}8b-4[0##3.6923],2,5,3,
7,1,6,2,
3h[4:3],5-1[2.3077##0.2308],7-3[1.3846##0.2308],1<4[1.8462##0.4615],
2,7,5,1,
2h[4:3],1-5[1.3846##0.2308],3,6h[4:1],
1,7h[2:1],8-4[1.3846##0.2308],2-6[8:1],
2,8,5w1[1.3846##0.2308]/3-5[0.9231##0.2308],4/7-5[8:1],
7/3,5,3b/6b,{8}4,5,
2b-6[0##0.9231],6,7,8<5[0.9231##0.2308],,1,2,8/4-8[0.9231##0.2308],
,3-1[8:1],,3/4,,5/6,,7-3[1.8462##0.2308],
2-5[1.1538##0.2308],5-1[8:1],1,5,,2,,7,
,,{4}3-8[0.9231##0.2308],7-4[8:1],7/3,
{8}5<8[0.6923##0.2308],4,3,5/2-6[0.9231##0.2308],,4,5,2/7-5[0.9231##0.2308],
,4-8[8:1],,7/4,,2/1,,3,
{4}4h[8:1]/7-3[1.8462##0.2308],5h[8:1]/2-6[2.7692##0.2308],3h[8:1]/8-4[1.3846##0.2308],6h[8:1]/1-5[1.3846##0.2308],
7,8,1,2,
4b<8[0##1.8462],3,2,1,
2b-6[0##1.8462],5,7,8,
1b>5[0##1.8462],6,7,8,
7b-3[0##1.8462],4,2,1,
2bqq6[0##2.5385],4,5,6,
7>2[8:1],7,4,5,
{1}1w5[2.7692##0.2308],
{4},,1b,{8}7-4[0.9231##0.2308],3-8[1.1538##0.2308],
{4}2-6[1.8462##0.2308]/6-2[1.8462##0.2308],7,3,{8}5,1,
{4}2/6,{8}8-3[1.3846##0.2308],4-7[1.1538##0.2308],1,5,2,6,
{4}4/8,{8}1-6[1.3846##0.2308]/2-5[1.3846##0.2308],3,{4}7-3[8:1],{8}7,8,
{4}2/1,{8}3v2[1.3846##0.2308],8v1[1.1538##0.2308],4,7,5,6,
{4}3/8,4/7-4[1.3846##0.2308],3/8-3[8:1],8/4,
7/3,{8}1>4[8:1],4-8[1.8462##0.2308],1,5-1[0.6923##0.2308],,2,
5,3,6,4,,6pp3[0.2308##0.9231],{4}6/2h[8:1],
4,5,{8}2,5,6-2[0.9231##0.2308],3-8[1.1538##0.2308],
{4}7-4[0.9231##0.2308]/1-5[1.8462##0.2308],6,7/3,{8}2/6-8[8:1],7,
{4}1/6,{8}3-8[1.3846##0.2308],4-7[1.1538##0.2308],8,7,1,6,
{4}4/3,6<1[0.9231##0.2308]/4v1[1.3846##0.2308],2>5[8:1]/8v5[0.9231##0.2308],2/6,
4/8,{8}2-5[1.8462##0.2308],6-1[1.6154##0.2308],3,7,4,8,
{4}3-6[0.9231##0.2308]/7-2[0.9231##0.2308],6/2,3/7,8/4w8[8:1],
4,{8}2v5[1.3846##0.2308],6v1[1.1538##0.2308],4,7-4[1.3846##0.2308]/3-8[2.0769##0.2308],,4,
{4}2/6,{8}5,7,,4pp7[0.2308##0.9231],{4}3/4,
8,1,{8}2,2,5,2>5[0.2308##0.2308],
2,,,6<1[0.2308##0.2308],6,,,2-6[0.2308##0.2308],
2,,,7-4[8:1],3-8[8:1],7,3,5<8[0.2308##0.2308],
5,,,1>4[0.2308##0.2308],1,,,8-4[0.2308##0.2308],
8,,,2-5[8:1],6-2[8:1],2,6,1>4[0.2308##0.2308],
1,,,7-3[0.2308##0.2308],7,,,1-6[0.2308##0.2308],
1,,,4-7[8:1],3-8[8:1],4,3,7<4[0.2308##0.2308],
7,,,1-5[0.2308##0.2308],1,,,7-3[0.2308##0.2308],
7,,,1-4[8:1],6-1[8:1],1,6,4>1[2.0769##1.8462],
5h[8:1],,,5,5h[8:1],,,5,
{1}4b,
E
