&title=U.N.オーエンは彼女なのか?
&artist=上海アリス幻樂団
&first=0
&des=Acadm
&clock_count=4
&lv_5=14
&inote_5=(155){1},
,
{16}2,4,,3,5,,4,6,,5,7,5,7h[16:3],,,5,,,68,,
{16}6,8,,7,1,,8,2,,1,3,1,3h[16:3],,,1,,,24,,
{16}2,4,,3,5,,4,6,,5,7,5,7h[16:3],,,5,,,68,,
{16}6,8,,7,1,,8,2,,1,3,1,3h[16:3],,,1,,,24,,
{16}2,4,,3,5,,4,6,,5,7,5,7h[16:3],,,5,,,46,,
{16}6,8,,7,1,,8,2,,1,3,1,3h[16:3],,,1,,,28,,
{16}2,4,,3,5,,4,6,,5,7,5,7h[16:3],,,5,,,68,,
{16}6,4,5,3,4,,2,1,,3,5,4,6b,,,8b,,,2b,,
{4}4-1[8:1],2,4-1[8:1],5,
{4}4-1[8:1],2,4-1[8:1],5,
{16}3,4,1,,4,3,1,,3,4,1,,4,3,1,,
{16}5,,2,2,1,,4,4,5,2,1,4,5,2,1,,
{8}13,2,38,2,35,6,45,6,
{8}18,2,16,2,46,7,26,7,
{8}17,2,35,4,25,6,47,8,
{16}4,,7,7,8,,5,5,4,7,8,5,4,7,8,,
{4}1-5[8:1],2-6[8:1],3-7[8:1],4-8[8:1],
{4}5h[4:1],6q6[4:1],6w2[8:1],,
{8}46,2,35,1,2q6[8:1]/4,8,2,,
{8}6,47,5,36,4pp3[4:1],,8,,
{4}8-4[8:1],7-3[8:1],6-2[8:1],5-1[8:1],
{4}4h[4:1],3p3[4:1],3w7[8:1],,
{8}53,7,64,8,7<4[8:1]/5,1,7q4[8:1]/3,,
{16}3/7,,,,1h[4:1],,,,5,,5,,5,1,7,3,
{4}1-5[8:1],2-6[8:1],3-7[8:1],4-8[8:1],
{4}5-2[8:1],6q6[4:1],6w2[8:1],,
{16}46,,2,,35,,1,,2q6[8:1]/4,,1,8,2,,,,
{8}6,47,5,36,4pp3[4:1],,8,,
{4}8-4[8:1],7-3[8:1],6-2[8:1],5-1[8:1],
{4}4-7[8:1],3p3[4:1],3w7[8:1],,
{16}53,,7,,64,,8,,7<4[8:1]/5,,1,2,7/3>8[8:1],,,,
{16}5,,6,6,6,,7,7,7,7,7,,1-5[1:1],,28,,
(150)
{1}1,
{4}1h[4:3],,,3-7[2:3],
{1}3,
{1}3h[4:3],
(152)
{12}8,1,2,8,1,2,1,2,3,1,2,3,
{12}2,3,4,5,6,7,5h[16:7],,,,,,
{12}7,6,5,7,6,5,8,7,6,8,7,6,
{12}3,2,1,8,7,6,8h[4:1],,,,,,
{12}8,2,3,8,2,3,7,3,4,7,3,4,
{12}6,5,4,3,4,5,6h[16:7],,,,,,
{12}2,6,5,2,6,5,1,7,6,1,7,6,
{16}4,,7,7,8,,5,5,4,,,34,,,23,,
(155)
{2}2h[4:1]/3h[4:1],4h[4:1]/5h[4:1],
{2}1h[4:1]/8h[4:1],6h[4:1]/7h[4:1],
{8}3,2-5[8:1],,1p5[8:1],,3-8[8:1],,4q8[8:1],
{8},2v7[8:1],,1-7[12:1],,3-5[12:1],,5,
{8}6,7-4[8:1],,8q4[8:1],,6-1[8:1],,5p1[8:1],
{8},7v2[8:1],,8-2[12:1],,6-4[12:1],,4,
{8}3,2-5[8:1],,1p5[8:1],,3-8[8:1],,4,
{16}5,,2,2,1,,4,4,5,2,1,4,5,2,1,,
{8}87,5,72,5,73,1,53,1,
{8}82,6,84,6,54,2,74,2,
{8}87,5,72,5,73,1,53,1,
{8}82,6,8qq1[8:3]*-4[8:1]/4,6,8,,,,
{8}12,4,27,4,26,8,46,8,
{8}17,3,15,3,45,7,25,7,
{8}12,4,27,4,26,8,46,8,
{8}17,3,1pp8[8:3]*qq2[8:3]/5,3,1,,,,
(310){1},(155)
{4}1-5[8:1],1/7>2[8:1],5-1[8:1]/7,5/7<4[8:1],
{4}3h[4:1]/7,1q1[4:1]*p1[4:1],1w5[8:1]*w5[8:1],,
{16}2/6h[8:1],,4,,3/7h[8:1],,5,,4/8h[8:1],,6-8[12:1],5,4,,1,,
{8}3h[4:1],1,5h[4:1],1,7<3[8:1],,,,
{8}8-4[8:1],7,2<7[8:1],3,4-8[8:1],5,2>5[8:1],1,
{8}6h[4:1]/2,,8p8[4:1]*q8[4:1],71,8w4[8:1]*w4[8:1],,,,
{16}2/6h[8:1],,4,,3/7h[8:1],,5,,4/8h[8:1],,6-8[12:1],5,4,,1,,
{24}3,4,5,8,,,3,4,5,7,,,3,4,5,6,,,7b,,,,,,
{8}8-4[8:1],7,2<7[8:1],3,4-8[8:1],5,2>5[8:1],1,
{8}6h[4:1]/2,,8p8[4:1]*q8[4:1],71,8w4[8:1]*w4[8:1],,,,
{16}7/3h[8:1],,5,,6/2h[8:1],,4,,5/1h[8:1],,3-1[12:1],4,5,,8,,
{8}6h[4:1],8,4h[4:1],8,2>6[8:1],,,,
{8}1-5[8:1],2,7>2[8:1],6,5-1[8:1],4,7<4[8:1],8,
{8}3h[4:1]/7,,1q1[4:1]*p1[4:1],28,1w5[8:1]*w5[8:1],,,,
{16}7/3h[8:1],,5,,6/2h[8:1],,4,,5/1h[8:1],,3-1[12:1],4,5,,8,,
{24}8h[8:1],,,4h[8:1],,,8,7,6,4,3,2,8,7,6,4,3,2,8v2[8:1],,,,,,
{1}5b,
