&title=Recollect Lines
&artist=ああああ vs ぺのれり
&first=0
&des=The Last Memory
&lv_6=終
&inote_6=(145){1},{4}1>6[2:1],4,7,
(143)8>5[2:1],3,6,
(137)7>4[2:1],2,5,
(129)6<3[2:1],1,4,
(124)5w1[8:17],,,
,,,
,,,
(127),,,,,,
(200)
{8},3/5,4,7/5,6,3/4,2,{32}B6,B5,,,
{8},1-5[4:1],1,,,7,7h[4:1],5,5h[4:1],{16}3,2,1,8,7,6,
{8}1,6^1[4:1],6,2,,3^6[4:1],3,2,,{16}1,2,3,4,5,6,
{8}8,6p1[4:1],6,7,,7,6/8,1,2/8,3,4/5,6-4[4:1],,3,3,2,{32}B3,B4,,,{8},
{8}1qq7>3[8:3]/7,1/7,,,,{24}E4,E5,E6,
{1}8b-6-2-4b[2:1],
{8}2h[1:1],3,4,5,,B7,A8,,
{8}Ch[2:1],,,{16}2,3,{8}4,4,8,8,
{8}7h[1:1],6,5,4,,B2,A1,,
{16}E1,E8,E7,E6,E5/8hx[2:1],E4,E3,E2,E1,,,,{8}2,,
{8}2h[1:1],3,1,8,,E7,E6,,
{8}Ch[2:1],,,{16}3,2,{8}1,1,8,8,
{8}2,7-4[8:1],7,4<1[2:1],,2h[8:3],,,
{8},2-8-6-4[2:1],3,4,,,,,
(203)
{16}3,2,1,8,4,3,2,1,5,4,3,2,6,5,4,3,
{8}1pp3[8:1],3>7[4:1],1,,5,5h[8:3],,,
{16}8,1,2,3,1,2,3,4,2,3,4,5,3,4,5,6,
{8}4^1[8:1],4,7-5[8:1],7,8v3[8:1],,8/4h[4:1],,
{16}2,1,8,7,1,8,7,6,8,7,6,5,7,6,5,4,
{12}1,3,2,8,6,7,2,4,3,7,5,6,
{16}3,4,2,4,3h[8:1],,7,8,6,8,7h[8:1],,2,1,3,1,
{8}2h[8:1],{16}8,1,8,1,7,2,5,4,6,3,6,3,5,4,
{8}8b-4[8:1],,1/8b,,{16}3-8[8:1],5,4,5,3,,7^4[8:1],,
{8}1b,7,3b,{16}2,3,2,3,1-5[8:1],4,1,4,1b,,
{8},{16}6,5,6,5,7,8,1,2,4,5,6,7,8,1,
{16}2,3,5,6,7,8,1,2,4,4,4,4,3,5,2,6,
{8}1b-3[8:1]/7b-3[8:1],,1b-5[8:1]/7b-5[8:1],,1b/7b,,2/8-4[8:1],2/8,
{8}1,{16}3,3,5,,6,,7,7,5,,{8}2/8,{16}1,,
{32}1b,2/8,3/7,4/6,{8}5^8[8:1],,{24}4b/5b,3,2,{4}1-5[8:1],{16}1b/8b,,8,7,
{8}6,6,{16}3,5,3,5,{24}4,4,4,4,4,4,4,4,4,4,4,4,
{2}4bx/5x,3h[2:1],2h[2:1],1h[2:1],8h[2:1],,
{2}6h[2:1],4h[2:1],
{12}3,2,1,4,7,6,5,8,3,2,1,4,
{12}1,2,3,8,5,6,7,4,1,2,3,8,
{24}5,6,7h[12:2],,1,2,3h[12:2],,8,7,6h[12:2],,4,3,2h[12:2],,5,4,3h[12:2],,1,8,7h[12:2],,
{24}4,5,6h[12:2],,8,1,2h[12:2],,7,8,1h[12:2],,3,4,5h[12:2],,2,1,8h[12:2],,6,5,4,3,
{8}2b/6b,{16}6,2,7,1,8,,3,5,1,7,8,,5,3,
{16}6,2,8,,7,1,6,2,4,,1,7,2,4,4,,
{16}7,1,4,4,4,,1,4,4,4,4,,4,4,4,4,
{16}3/5,,4,4,3,5,2,6,1,7,8,8,8-3[8:1]*-5[8:1],8,8,8,
{8}8b,,{16}4x,3x,2,1,7,8,7,8,7,6,5,4,
{8}1b^4[8:1],,1/6,8-4[8:1],,8/1<3[4:1],,1,,
{16}E1,E8,E7,E6,1,2,3,4,E2,E3,E4,E5,8,7,
{16}6,5,7/4,6,5,4,3/6,5,4,3,2/5,4,3,2,1,8,
(202)
{8}7hbx[1:2]/3,3,4,4,,E4,E5,,,,,{16}B5,B6,{8}B7,E1,E2,E3,
{8}Ch[1:1],7,8,8<2[8:3],,8,,,
{8},,{12},1b/8b,,1b/8b,,2b/7b,,3b/6b,,
{8}1b/8b,6^1[8:1],(207)
{8}1,{24}1x,2,3,{8}4^7[8:1],7,{24}7x,8,1,{8}2^5[8:1],6,{24}6x,7,8,
{8}1-6[8:1],1b,{12}5b,,4b,7<2[4:1],3b,,2b-5-8[4:1],,,
{8}1,1,,{16}2,8,5,7,1,4,3,6,5,8,
{16}2,,1,,{12}1b/8b,,2b/7b,,3b/6b,,
{8}8b/1b,3^8[8:1],
{8}8,{24}8x,7,6,{8}5^2[8:1],2,{24}2x,1,8,{8}7^4[8:1],3,{24}3x,2,1,
{8}8-3[8:1],8b,{12}4b,,5b,2>7[4:1],6b,,7b-4-1[4:1],,,{8}8,8<1[4:1],,8/C,,,5b,{16}4,6,
{16}4,6,3,7,3,7,2,8,2,8,1,,2bq5[4:1]/8b,,,,
{16}2,,6x,7x,8x,1hx[4:1],{32}6,7,8,,2,3,4,5,6,7,8,1,{4}2b/8b-4[8:1],
{8}1/8,3>6[8:1],3,5-1[8:1],,4b/5b,,{16}2,3,
{16}4/8,7,6/2,3,4/7,6,5/1,2,3/7,6,5/1,2,{24}3/7b,8,1,2,3,4,
{24}5/3b,2,1,8,7,6,5/7b,8,1,2,3,4,5/3b,2,1,8,7,6,{4}5-1-5[4:1]/7bh[4:1],
{8}5,7,,{16}6,7,8/4,3,2/5,6,{4}7h[4:1]/1-5-1[4:1],
{8}1,7,,{16}8,7,6/2,3,4/1,8,{4}7h[4:1]/5-1-5b[4:1],
{8}5b,7b-3-7b[4:1],,7b,2b^5-1b[4:1],,2b,8b,
{8}7,7,{24}1b/8b,2,3,4,1b/5,2,3,4,5,6/4b,7/3,8/2,{8}1b,6^1[8:1],
{8}1,{24}1x/6,2,3,{8}4^7[8:1],7,{24}7x/4,8,1,{8}2^5[8:1],6,{24}6x/2,7,8,
{8}1-6<3-8[2:1],1,{12}2b,,3b,,4b,,5b-1-3[6:1],,,
{8}1/5,7^4[8:1],,7/2b-6[8:1],,1/2b,,{32}8h[4:1],,,,
{32}E6,E5,E4,E3,,,,,{24}8b/1b,7,6,5,8b/4,7,6,5,4,3/5b,2/6,1/7,{8}8b,3^8[8:1],
{8}8,{24}8x/3,7,6,{8}5^2[8:1],2,{24}2x/5,1,8,{8}7^4[8:1],3,{24}3x/7,2,1,
{8}8-3>6[3:1],8,{12}7b,,6b,,5b,,{16}4b-8b[8:1],8,6,2,
{16}4b,,,,1b-5b[8:1],7,3,5,1b,,,,{32}8bh[8:1]/4b,3,2,1,,,,,
{32}2bh[8:1]/7,6,5,4,,,,,{24}4x/1b,5,6,7,8/2b,1,2,3,4/3b,5,6,7,{8}8/4b,4^7[8:1],
{24}5,,,3,2,1,8^3[8:1],,,1,,,7,6,5,4^7[8:1],,,5,,,3,2,1,
{8}8-6-2-8-4[2:1],1,{12}2b,,3b,,4b,,5b-1-3[6:1],,,
{8}5/8,6^1[8:1],,6/4>5[4:1],,4/8,,8x,
{8}8x,{24}8x,7,6,{16}5,,3,4,2<4[4:1],5,3,4,2b,,,,
{8}1x,7hx[4:1],,{16}4,8,5<3[4:1],1,4,8,5b,,,,
{8}7x,5h[4:1],,{16}1,4,8,5,1,4,8-3[8:1],,,,
{8}8/4,7-4[8:1],,7/4,2-6[8:1],,2/7,1^6[8:1],
{8},{24}1/5,4,3,{12}2h[12:2],,5,,4/2,,{32}1/3b,2,1,8,7,6,5,4,
3/1b,,,,,,,,3/1b,2,3,4,5,6,7,8,1/7b,,,,,,,,1/7b,6,5,4,3,2,1,8,
7/1b,,,,,,,,7/1b,2,3,4,5,6,7,8,1/7b,,,,,,,,{16}6b/2b,,1/5,1/5,
{16}1/5,,7b/3b,,8/4,8/4,8/4,,1b/5b,,,,{32}1b/5b,8/4,3/7,2/6,1x/5x,,,,
{4},3h[8:3],7h[8:1],
(102.5){1}7^5>2^7^6^5^4^3[4:7]/3^1^6>3^2^1^8^7[4:7],,
{8},,,{32},,,1x/2x,,,,3x/8x,,,,7x/4x,,,,5x/6x,{64},,,,,,B4,B3,(96)E3,,,,,,,{16}D7/E7,D5/E5,{64},
{48}E4,E3,E2,E1,E8,E7,E6,E5,E4,E3,E2,E1,(80){4}Cf,(58){8}1x,8x,
(235)2b/7b,,4/5,4/5,3>7[4:1]/6,3,7>4[4:1],,
{8}4-2-8<4[16:7],,6h[4:1],,,,{16}3/1,2/8,1/7,8/6,
{16}7/5,6,5,4,{4}7h[4:1]/3,1h[4:1],3h[4:1],
(233){8}2-5[8:1],,2/6,6-1[8:1],,6/2,{16}2,3,4,5,
{16}6/8,7,8,1,2/6,3,4,5,6/8,7,6,5,4/8,3,2,1,
{16}8/2,7,6,5,{8}4/8-3[8:1],,4/8,5-1[8:1],,4/5,
(230){8}3b,,5/4,5/4,6<2[4:1]/3,6,2<5[4:1],,
{8}5-7-1>5[16:7],,3h[4:1],,,,{16}6/8,7/1,8/2,1/3,
{16}2/4,3,4,5,{4}2h[4:1]/6,6h[4:1],4h[4:1],
{12}6,2,4,7,5,3,8,5,6,2b/7b,,,
{8}2b/7b,4bh[8:1]/5bh[4:1],,,
{12}3,7,5,2,4,6,1,4,3,7b/2b,,,
{8}7b/2b,5bh[8:1]/4bh[4:1],,,
{12}6,6,5,2,4,8,7b/5b,,,
{12}3,3,4,7,5,1,2b/4b,,,
{12}3,3,4,7,5,2,2,8,5,
{8}6h[4:1]/4,,2h[4:1],,4h[4:1],,
{4}1^4[4:1],4^7[4:1],7^2[4:1],
(225)5x-3-7-1[2:1],5,2,3,{8}4h[4:1],1h[4:1],,4,
(210){16}4hbx[8:3]/1,8,7,6,5,,3,2,1/5,8/4,7/3,6/2,
(240){4}5b/1b,,
(220)6/3,
(160){12}5,4,5,
(195){12}4,5,4,5,4,5,{16}3,6,3,6,3,6,3,6,
(215){16}2,7,2,7,2,7,2,7,1,8,1,8,1,8,1,8,
{2}1h[2:1],Cf,
(235){8}3-1[8:1]/4,,3/5,5-7[8:1],,5/8,{32}8,1,2,3,,,,,
{24}1,2,3,4,5,6,{8}7v4[8:1]/1v4[8:1],,7b/1b,,2/6,2/6,
{16}6,5,6,3,4,3,6,5,6,2,4,2,7,5,7,3,
{8}6-8[8:1],,6/4,4-2[8:1],,4/1,{32}1,8,7,6,,,,,
{24}8,7,6,5,4,3,{8}2v5[8:1]/8v5[8:1],,2b^4[8:1]/8b^6[8:1],,
{8}2b/8b,,2b-6[8:1]/8b,,2h[8:3],,,8b,,,
{16}2,4,2,4,1,5,1,5,8,4,8,,{32}1b/6b,2,3,4,,,,,
{32}8b/3b,7,6,5,,,,,{32}2b/6b,,,,2/6,,,,{16}4,8,4,8,3,7,3,7,2,6,2,6,
{16}5,4,3,2,1/5,8/4,7/3,6/2,5/1,8,7,6,
{8}5/1,1/5,4/8,4/8,3/7,3/7,2/6,2/6,
{8}1/5,1/5,4/8,4/8,{16}3/7,8,1,2,3/7,4,5,6,
{16}7/3,8,1,2,(230)3,7,3,7,2,8,2,8,1-5b[8:1],1,2,8,
{1}1bqq6[4:7]*pp4[4:7]/Cf,,,
(235){8}8-4[8:1]/1,8,8/2-6[8:1],2,2/5-1[8:1],5,5/4-8[8:1],4,4/7-3[8:1],7,
{8}7/1,1,{16}2,4,2,4,1,3,2,4,3,5,4,6,{8}5b,7b/8b,3b/4b,1bw5[8:1]/8bw4[8:1],3b/6b,
{64}8b/1b,,E1f,Cf,B5/B4/B6/B3/E5f,
