&title=FLügeL《Λrp-ΣggyØ》
&artist=かねこちはる
&first=-0.4
&des=Yell0wduck
&lv_5=14+
&inote_5=(120){1},
{8}2b/7b,,8/1pp5[4:3],,,,6,,5<1[2:1],,,,1>5[2:1],,,,5qq1[1:1],,6,,7,,8,,1pp4[8:7],,8,,7,,6,,5w1[8:10],,,,,,,,,,,,,,,,
(240){4}2-4[8:1],6-8[8:1],4-6[8:1],{8}1,1h[8:3],,2>5[8:1],2,,
{4}7-5[8:1],3-1[8:1],5-3[8:1],{8}8,8h[8:3],,7<4[8:1],7,,
1-4[8:1],,6-1[8:1],,4-7[8:1],,8,8h[8:3],,1>4[8:1],1,,
8-5[8:1],,3-8[8:1],,5-2[8:1],,1,1h[8:3],,8<5[8:1],8,,
3h[8:1],4,3h[8:1],8,3h[8:1],4,3h[8:1],7,3h[8:1],4,3h[8:1],6,
5,6h[8:1],7,6h[8:1],5,6h[8:1],7,6h[8:1],{12}2,4,3,7,5,6,
{8}4h[8:1],5,3h[8:1],5,2h[8:1],5,1h[8:1],5,8h[8:1],5,1h[8:1],5,
{6}2,35,46,75,46,35,{12}6,5,7,3,4,2,
{8}7-4[4:1],,4-8[4:1],,8q1[2:1],,2,2,,3,3,,
{8}2-5[4:1],,5-1[4:1],,1pp8[2:1],,7,7,,6,6,,
{8}7V53[2:1],,5,,3q5[2:1],,2,2,,1,1,,
{8}1V35[2:1],,3,,5p4[2:1],,7,7,,8,8,,
{8}5h[8:3]/6h[8:3],,,,5h[8:1]/4h[8:1],,3h[8:3]/4h[8:3],,,,
1h[8:1],2h[8:1],4h[8:1],3h[8:1],5h[8:1],4h[8:1],6h[8:1],5h[8:1],7h[8:1],8h[8:1],5h[8:1],4h[8:1],,,
2h[8:1],4h[8:1],3h[8:1],5h[8:1],4h[8:1],6h[8:1],5h[8:1],7h[8:1],4h[8:1],6h[8:1],3h[8:1],5h[8:1],
{12}4,3,2,1,8,7,63,2,1,8,7,64,3,2,1,8,7,6,
(120){8}3qq8[1:1]/5,,7,6,5h[8:1],,6h[8:1],,7p4[8:3],,,,1<6[8:1]*>4[8:1],,,,
3/6qq1[8:9],,2,3,4h[8:1],,3h[8:1],,2-5[8:1],,,,1V35[8:1]/7V53[8:1],,,,
6/2pp8[8:9],,8,7,6h[8:1],,5h[8:1],,4-7[8:1],,,,5V31[8:1]*V71[8:1],,,,
(240){8}2h[4:1]/3h[4:1],,,3h[4:1]/4h[4:1],,,45,,7h[4:1]/6h[4:1],,,6h[4:1]/5h[4:1],,,54,,2h[4:1]/4h[4:1],,,3h[4:1]/5h[4:1],,,46,46,{12}3,4,2,6,5,7,1b,,,,,,
{8}4>2[8:1]/8<6[8:1],,48,,1-5[8:1],5V38[4:1],1,8-4[8:1],,,
{4}6>4[8:1],1<6[8:1]*>4[8:1]/6,1,
{8}5<7[8:1]/3>1[8:1],,53,,8-4[8:1],4V61[4:1],8,1-5[8:1],,,
{4}3<5[8:1],8>3[8:1]*<5[8:1]/3,8,
{8}4-1[8:1]*-6[8:1],,4,,2-6[8:1],6V41[4:1],2,1-5[8:1],,,
{4}7<5[8:1],2<8[8:1]*>5[8:1]/7,2,
{8}3-6[8:1]/7-4[8:1],,73,,18,27,36,5<1[8:1]/4,,2,3,4>8[8:1],,6,5,4,
{8}1-6[8:1]*-3[8:1],,1,,2-5[8:1],5V38[4:1],2,8-4[8:1],,,
{4}6-4[8:1],1<6[8:1]*>4[8:1]/6,1,
{8}5-8[8:1]*>3[8:1],,5,,7-4[8:1],4V61[4:1],7,1-5[8:1],,,
{4}3-5[8:1],8>2[8:1]*<5[8:1]/3,8,
{12}1,2,3,4,5,6,72,3,4,5,6,7,82,3,4,5,6,7,83,4,5,6,7,8,14,5,6,7,8,1,26,5,4,3,2,1,38,4,5,6,7,8,15,4,3,2,1,8,
{8}73,1b/5b,,26,4b/8b,,83,5b/6b,,16,4b/3b,,{16}8-4[8:1],7,6,5,4b/8b,,,,
{8}2h[1024:1],6h[1024:1],4h[1024:1],5h[1024:1],,4h[1024:1],,5h[1024:1],,3h[1024:1],4h[1024:1],5h[1024:1],6h[1024:1],5h[1024:1],4h[1024:1],3h[1024:1],2q5[4:3],,,,,,,,,,,,,
4h[1024:1],5h[1024:1],3h[1024:1],7h[1024:1],2h[1024:1],5h[1024:1],4h[1024:1],,6h[1024:1],,3h[1024:1],,7h[1024:1],6h[1024:1],5h[1024:1],4h[1024:1],3h[1024:1],4h[1024:1],5h[1024:1],{1}6p5[1:1]*p3[2:3],,
{8}6q7[8:10],,,,{6}5,4,3,2>5[4:1],,,,,,{8}3p1[8:10],,,,{6}4,5,6,7<4[4:1],,,,,,
{16}3,4,3pp8[8:13]*<6[8:3],,{4},,,,,{6}7,6,5,{4}4,,,
{12}1,2,3,{8}5,6,4,3,5,6,4,3,{12}6,5,7,3,4,2,6,5,8,3,4,1,{1}7b,
{8}2-4[8:1],4-8[8:1],2,7-4[8:1],,7/1-5[8:1]*-7[8:1],,1V35[4:1],,6,7,8,1V75[4:1],2,3,4,
3h[1024:1],2h[1024:1],1h[1024:1],8<6[8:1],,4>2[8:1],,5-7[8:1],,4h[1024:1],3h[1024:1],2h[1024:1],1h[1024:1],
7,6,5,4V61[4:1]/3,2,1,2-5[8:1],,2/8-3[8:1]*-5[8:1],,8,,2,3,4,5,4,3,2,
{12}6,7,8,1,2,3,45,6,7,8,1,2,36,7,8,1,2,3,45,6,7,8,1,2,
{6}3q5[2:1]/6,,,5,6,7,{8}8V64[4:1],,83,2V48[4:1],,26,5,,
{6}7qq1[2:1],,,4,3,2,{8}3V51[4:1],,38,7V58[4:1],,72,3,,
{16}2,3,4,5,6,7,8,1,27,6,5,4,3,2,1,8,73,4,5,6,7,8,1,2,36,5,4,3,2,1,8,7,
{16}3,7,3,7,3,7,3,7,2,6,2,6,2,6,2,6,1,5,1,5,1,5,1,5,
{16}1,2,3,4,1,2,3,4,
{8}1-3[8:1]/5-7[8:1],,1-7[8:1]/5-3[8:1],,15,,6-2[8:1]/2,6/2-4[8:1]*-8[8:1],,,,,
7-5[8:1]/4-2[8:1],,7-1[8:1]/4-8[8:1],,74,,6V47[4:1]/4,6/4-1[8:1],,,,,
2-4[8:1]/6-4[8:1],,2-8[8:1]/6-8[8:1],,26,,7V13[4:1]/1,1-5[8:1]/7,,,,,
2-4[8:1]/7-5[8:1],,2-8[8:1]/7-1[8:1],,27,,1-5[8:1]/5,1-7[8:1]/5-3[8:1],,,,,
{12}3,4,3,6,5,6,3,4,2,6,5,7,3,4,1,6,5,8,3,1,3,6,8,6,2,1,2,7,8,7,2,1,3,7,8,6,
1,2,3,4,5,6,2,3,4,5,6,7,3,4,5,6,7,8,1,2,3,5,6,7,2,3,4,6,7,8,3,4,5,7,8,1,
{16}3,4,3,4,3,4,3,4,3,2,1,8,4,5,6,7,2,1,3,8,2,1,3,8,2,3,4,5,1,8,7,6,
1,8,1,8,1,8,1,8,1,8,1,8,1,8,1,8,{12}2,3,4,7,6,5,3,4,5,6,5,4,{1}3h[1:2]/1h[1:2],,,E
&inote_6=
