&title=キズナミユージック♪
&artist=Poppin'Party
&first=0.02
&des=EY
&lv_5=14
&des_5=EY
&inote_5=
(189){4},{8},,,,,,,,,,,,,,8h[4:1]/7<6>5>4>3>2[2:1],
,,1,1h[4:1],,,6/5,
5h[4:1]/6<7>8>1>2>3[2:1],,,4,4h[4:1],,,1/2,
1h[4:1]/2<1-7<6-4>3b[2:1],,,5,5h[4:1],,,8/7,
8h[4:1]/7>8-2>3-5<6b[2:1],,,4,{16}4h[4:1],,,,,3,2,1,
{8}7b/8h[4:1],7,7,3b/4h[4:1],3,3,1b/2h[4:1],3,
1,5b/6h[4:1],7,5,{16}E5/E7,E4/E8,{8}E3/E1,B6/E6/B5,B1/E2/B2,
{4}4bh[8:1]/5bh[8:1],{8}4/5,4/6,4/7,8/4>3>2<1<8[4:1],4/7,4b/Ch[4:1],
,,5x/4x,5/3,5/2,5/1,{4}5h[8:1]/8h[8:1],
4bx/6b,{8}3x/5,5-3[8:1],2x,5-7[8:1],1x,5,
{4}8x,6x/1,7x/2,8x/3,
1x/7,{8}2x/7,6-1[8:1],3x,6>5>4>3>2<1<8[8:5],4x,6,
{4}8x,7x,6x,{8}5x/B8/B7/E8,B3/E4/B4,
{4}8bx/2b,{8}6x/3,2p6[8:1],7x,2q6[8:1],5x,2,
{4}7x,3x/7,2x/6,4x/8,
8x/3,{8}5x/3,2v7[8:1],7x,2>3<4<5<6<7>8[8:5],6x,2,
{4}1x,2x,3x,{8}4x/B8/B7/E8,B3/E4/B4,
2b/5bh[4:1],3,1,2/6h[4:1],8,1,2/6,4h[4:1],
6,8,7/3h[4:1],1,8,7,5/4,{16}2,8,
{8}1bh[4:1],7,5,6/2h[4:1],4,5,6/2,8h[8:5],
2,4,3,5,4,3,1/8,{16}6,4,
{8}5bh[4:1],4,3qq1[8:1],2,3/6,7v4[8:1]*p3[8:1],2,7,
,,5/2,3/6h[4:1],4,2,5/4,5/4h[8:5],
6,5,3,5,{4}6,2<1p3[8:3]/6v8<4[8:3],
{2}6/2,8v3b[0.6349##0.1587]/1v6b[0.6349##0.1587],
{8}Cf/8bw4b[0.4762##0.1587]/1bw5b[0.4762##0.1587],,,Cf/B6/B3/B7/B2/8bq5<6<7>8<7<6>5b[0.4762##0.9524]/1bp4>3>2<1>2>3<4b[0.4762##0.9524],,,{4}1b/8b/Cf/B2/B3/B7/B6,
{8},,,,,,1/8,2/7,
{4}7h[4:1],{8}E1/B1/E2/B2,6h[4:1],,E3/B3/E4/B4,{4}5h[4:3],
{32},,,,,,,,,,,,,A4,A3,A2,{4}A1,{8}7pp2[2:1]/3pp6[2:1],5/1,
{4}7/3,,,2x/4xq8>1[4:1],
4/1pp2q8[16:9],{8}2q8<6q4>2[1:1],8xh[8:3],,,,Ch[8:5],
,,,,,,{4}7/2-6[8:1],
2/7-4[8:1],{8}7/3,Ch[4:1],,,{4}7bh[8:1]/2bh[8:1],
{16}5,4,5,4,5,4,5,4,5,4,5,4,5,4,5,4,
6b,3,6,3,6,3,6,3,6,3,6,3,6,3,6,3,
7b,2,7,2,7,2,8b,1,8,1,{8}8,7b/2b,6b/3b,
,,{4}4-2[8:1]/8-2[8:1],4pp6[8:1]/8qq6[8:1],8/4,
{8}7x/3h[4:1],8,1<8-4pp4b[4:3],2,1/3h[4:1],,,Cfh[8:3],
,,,,{4}4/8-5[8:1],8/4-1[8:1],
4/6z2[4:1],{8}6,2qq6[0.1587##0.6349],,E3/B3/E4,,E5/B5/B4,
,,{4}3>1[8:1]/7>1[8:1],3v5[8:1]/7v5[8:1],3/7,
{8}2x/6h[4:1],3,4-8-3-5-1-4b[4:3],5,4/6h[4:1],,,Cfh[8:3],
,,,,{4}7h[8:1]/8h[8:1],1h[8:1]/2h[8:1],
{8}8/3h[8:3],6,7,5,2/4h[8:3],8,1,{16}8,1x/5x,
{8}6x/2xh[4:1],7,8,1/2,8/1,{16}7,5,{8}6,{16}2,4,
{8}3h[8:1],5,7/1,6,2/8h[8:1],4,1/7,2,
3/Ch[2:1],4,E2/A2,3,A4/B4,1,B2/B3/D3,5/Ch[8:5],
6,7,6,8,7,1-3-5-7-1[2:1]/8-2-4-6-8[2:1],,1s5[0.6349##0.3175]/8z4[0.6349##0.3175],
,,D7/E7/A7/A6,A8/E1/A1/D1f,,,6/3,2/7,
1/8qq6[8:1],2,8/3,4qq2[8:1],5,6/4,{4}7,
8-6[8:1]/1-5[8:1],1b-3[8:1]/8b-4[8:1],8b<6[8:1]/1bp5[8:1],8bq5[8:1]/1bp4[8:1],
8b/1b,{8}3/7,8-5[8:1]/4-1[8:1],,4b-7[8:1]/8b-3[8:1],,4b/8b,
{16},,,,2,1,3,8,{4}2h[4:1],{16}7,8,6,1,
{8}7x/3h[4:1],8,1<8-4pp4b[4:3],2,1/3h[4:1],,,Cfh[8:3],
,,,,{4}5q2[8:1]*p8[8:1],5qq5b[4:1]*pp5b[4:1],
{8}5,,,7xp8[8:3]/3xp4b[8:3],,3/7,,Cf/B1/B2/B6/B5,
,,{4}2v5[8:1]/6v1[8:1],2v3[8:1]/6v7[8:1],2>5>2[8:3]/6<7>8>1<8<7<6[8:3],
{2}2/6,{4}1xp2[8:3]/5xp6b[8:3],{8}5/1,Cf/B3/B4/B8/B7,
,,,,{4}3<5[8:1]/7>1[8:1],3>1v3[4:1]/7<5v7[4:1],
{8}3/7,,,8xp1b[2:1]/4xp5b[2:1],,8/4,,Cf/B8/B1/B2/B3/B7/B6/B5/B4,
{24},,,,,,,,,,,,{6}4b/5b,6b/3b,2b/7b,
{4}2bh[8:1]/7bh[8:1],{32}1b/8b,2b/7b,3b/6b,4bh[32:5]/5bh[32:5],,,,,,,,,{8}7/2,,3/6h[4:1],
2v5[8:1],2,2/7q4[8:1],7,7/1<8<7<6>5>4>3[8:3],1,{4}1h[8:3],
{8},,2/7,1>2-4z8[8:3]/8<7-5s1[8:3],,1/8,,C/B7/B8/B1/B2,
{32},,,,,,,,7,6,{16}5h[16:7],{32},,,,3,2,{16}1h[16:7],{32},,,,,6,7,8h[32:5],,,,,,,,,,,,,3,
2,{16}1h[16:7],{32},,,,7,6,{16}5h[16:7],{32},,,,,2,3,4h[32:5],,,,,,,,,,,,,4/5,
3/6,2/7,8h[32:5]/1h[32:5],,,,,,7/2,3/6,4h[32:5]/5h[32:5],,,,,,3/6,2/7,8h[32:61]/1>2>3<4<5<6<7q1[0.3571##0.6349],{4},,,{16},,{8}E2/B2,
E3/B3,
{4}B4/E5/B5,{8}B6/E6/E7,E3/B3/E4/B4,,,1,Ch[8:13]/B3h[8:13]/B5h[8:13]/B7h[8:13]/B1h[8:13],
E
