&title=Scattered Faith
&artist=黒皇帝
&first=0.0375
&des=Yoru $wholebpm=155
&lv_5=14+
&inote_5=(155.0)
{2}1>8[4:15],,E8,E2,5<8[4:7],,E4,E6,
3<2[4:15],,E2,E4,7>2[4:7],,E6,E8,
5<4[4:15],,E4,E6,1>4[4:7],,E8,E2,
7>6[4:15],,E6,E8,3<6[4:7],,E2,E4,
{8}2h[2:1],,3,,3,,2,3,2,3,2h[4:1],,3,,
3,4,3h[2:1],,4,,4,,3,4,3,4,3h[4:1],,4,,
6,5,6h[2:1],,5,,5,,6,5,6,5,6h[4:1],,5,,
5,4,5h[2:1],,4,,4,,5,4,5,4,5h[4:1],,4,,
1-3[8:1],8,1,,1-6[8:1]/2-5[8:1],,1/2,,7-1[8:1],5,7-5[8:1],5,7,,C,,
5-7[8:1],4,5,,5-2[8:1]/6-1[8:1],,5/6,,3-5[8:1],1,3-1[8:1],1,3,,C,,
8-6[8:1],1,8,,8-3[8:1]/7-4[8:1],,8/7,,2-8[8:1],4,2-4[8:1],4,2,,C,,
4-2[8:1],5,4,,4-7[8:1]/3-8[8:1],,4/3,,6-4[8:1],8,6-8[8:1],8,6,,C,,
{16}E2,B2,B3,E4,
{1}4bx>4>2-8<7V53>1s5[4:29]/5h[4:14],,,,7h[4:14]b,,,,
8h[4:6]/2b>3q5[4:5],,8b<6pp4[4:5]/2h[4:6],,
{2}1b>4[4:2],C,8b<5[4:2],C,4bV28[4:2],5bv7[4:2],
{12}D3,E4,D5,A2,B3,E5,E2,C,E6,A1,B8,E7,
{2}(155)1b>1[20:37],C,(170)5<1[16:15],Cf,
(185)1bV35V71[20:37],C,(200)5V71[16:15],Cf,
(215)1b>4[20:10],4<7[16:8],(230)7>2[16:8],2>5[16:8],
(245)5b-7>8[16:8],8-2>3[16:8],(260)3-5<6[16:8],6b,
(275){2}1h[4:2]b,{16},E2,B2,B3,E4,,,,(290){2}8h[4:2],{16},E8,B7,B6,E6,,,,
(305){2}3h[4:2]b,{16},E4,B4,B5,E6,,,,(320){2}7h[4:2],{16},E8,B8,B1,E2,,,,
(335){2}2h[4:2]b,{16},E3,B3,B4,E5,,,,(350){2}6h[4:2],{16},E7,B7,B8,E1,,,,
(365){2}8h[4:2]b,{16},E1,B1,B2,E3,,,,(380){2}4h[4:2],{16},E5,B5,B6,E7,,,,
(395){2}3b-8[197.5#16:1],3,(410)1b-6[205#16:1],1,
(425)7b-4[212.5#16:1],7,(440)5b-2[220#16:1],5,
(455)8b-5[227.5#16:1]/7b-5[227.5#16:1],87,(470)1b-4[235#16:1]/2b-4[235#16:1],12,
(485)1b-4[242.5#16:1]/5b-8[242.5#16:1],1b/5b,(500)1bp5[250#16:1]b/5bp1[250#16:1]b,1b/5b,
(515.00){4}1b,5,1b,5,1b,5,1b,5,1b,5,1b,6,1b,7,1b,8,
{8}1xb,8x,1xb,8x,1xb,8x,1xb,8x,2b,7b,2b,7b,2b,7b,2b,7b,
{12}2b,3,4,5,6,7,8b,1,2,3,4,5,{24}6b,D7,7,D8,8,D1,1,D2,2,D3,3,D4,4b,D5,5,D6,6,D7,7,D8,8,D1,1,D2,
(360)
{1}2h[1:5]b/Cf,,,,,,5w1[4:3]b,,
{8}1b,8,2,7,3,6,4,5,4>8[8:2],,8b<4[8:2],,4b>1[8:2]b,,,,
7b,8,6,1,5,2,4,3,4V68[8:2],,8bV24[8:2],,4b<5<6<7[8:2]b,,,,
{4}2b,12,7b,87,2b,13,7b,86,
{4}2bh[4:2],{24}1,8,7,6,,,{4},{4}1bh[4:2],{24}8,7,6,5,4h[24:14],,{8},,
8h[4:1],,{48}D1/D5,A1/A5,D2/D6,A2/A6,D3/D7,A3/A7,D4/D8,,,,,,
{8}4bx,5x,E4,B5,4x,5x,B4,E6,3,5,E4,C,4,6,B5,E7,
{4}3bh[4:1],4h[4:1],5h[4:1],6h[4:1],{8}7h[8:3],,,8h[8:3],,,1,,
{8}8b,1,E8,B1,8,1,B8,E2,7,1,E8,C,8,2,B1,E3,
{4}8bh[4:2],{24}1,2,3,4,,,{4},{4}7bh[4:2],{16}8x,1x,2x,3x,4x,5,6,7,{32}8b,D1,1,D2,2,D3,3,D4,4,D5,5,D6,6,D7,7,D8,
{4}8-6<7-3>2-4<5-1[4:6],A6,A7,A3,A2,A4,A5,A1f,
{4}5b-1-4-7-2-6-3-8[4:6]b,A1,A4,A7,A2,A6,A3,A8f,
{8}1,2,3h[4:1],,8bh[8:2],,2,3,4h[4:1],,8bh[8:4],,C,,1h[8:4],,,,8,7,6h,,7,6,5h[4:3],,4h[4:2]b,,,,Cf,,
{8}2b,8,3,1,2,8,3,1,2,8,3>8>3[8:4],1,,,A8f,,
{8}8b,7,6,5,8,1,2,3,8,7,6,5,8x-4[8:1],,Cf,,
{4}5b,63,4b,63,8b,72,1b,27,
{8}B2h[8:8],,B1h[16:14],,B8h[16:12],,B7h[16:10],,,,,,Cfh[64:1],,,,
{8}5b,4,6,3,7,2,8,1,8<4[8:2],,4bV28[8:2],,8b<5[8:2]b,,,,
3b,4,2,5,1,6,8,7,8V24[8:2],,4b<8[8:2],,8b-2>3[8:2]b,,,,
{4}6b,56,3b,43,6b,57,3b,42,
{4}6bh[4:2],{24}2,3,4,5,,,{4},{4}5bh[4:2],{24}1,2,3,4,8h[24:14],,{8},,
4h[4:1],,{48}E4/E8,B3/B7,B2/B6,E6/E2,A1/A5
,,,,,,,,
{8}8bx,1x,E8,B1,8x,1x,B8,E2,7,1,E8,C,8,2,B1,E3,
{4}7bh[4:1],8h[4:1],1h[4:1],2h[4:1],{8}3h[8:3],,,4h[8:3],,,5,,
{8}4b,5,E4,B5,4,5,B4,E6,3,5,E4,C,4,6,B5,E7,
{4}4bh[4:2],{24}5,6,7,8,,,{4},{4}3bh[4:2],{16}4x,5x,6x,7x,8x,1,2,3,{32}4b,D5,5,D6,6,D7,7,D8,8,D1,1,D2,2,D3,3,D4,
{4}4-8-5-2-7-3-6-1[4:6],A8,A5,A2,A7,A3,A6,A1f,
{4}5b-1-6-8-4-2-5-1[4:6]b,A1,A6,A8,A4,A2,A5,A1f,
{8}5,6,7h[4:1],,4bh[8:2],,6,7,8h[4:1],,4bh[8:4],,C,,5h[8:4],,,,4,3,2h,,3,2,1h[4:3],,8h[4:2]b,,,,Cf,,
{8}6b,4,5,3,6,4,5,3,
{8}7b,1,8,2,7,1,8,2,
{12}7b,6,5,4,3,2,1/5bh,6,7,8,1,2,3/7bh,8,1,2,3,4,5/1bh,8,7,6,5,4,
{24}A7,E7,B6,B5,E5,A4,D4/A3,E3,B2,B1,E1,A8,
A6,E7,B7,B8,E1,A1,D2/A2,E3,B3,B4,E5,A5,
{24}B8,B1,B2,B3,B4,B5,B6,B7,B8,B1,B2,B3,
B4/E8,E7,E6,E5,E4,E3,E2,E1,E8,E7,E6,E5,
5bx,D6,6x,D7,7x,D8,8x,D1,1x,D2,2x,D3,3x,D4,4x,D5,5,D6,6,D7,7,D8,8,D1,
{32}1bh,D2,2,D3,3,D4,4,D5,5,D6,6,D7,7,D8,8,D1,1b/Cfh[64:1],,,,,,,,,,,,,,,,
(380.00)
{8}1b,8,1,8,1,8,1,8,2b,8,2,8,2,8,2,{16}8xh,7x,
{8}6xb,4,6,4,6,4,6,4,5b,4,5,4,5,4,5,{16}4xh,3x,
{8}2xb,6,2,6,2,6,2,6,1b,6,1,6,1,6,1,{16}6xh,7x,
{8}8xb,4,8,4,
{12}8xbh,1x,2x,3x,4x,5x,6x/1bh,2,3,4,5,6,
{16}7/4bh,3,2,1,8,7,6,5,
{8}4b,3,4,3,5,3,5,3,
{8}5b,4,5,4,7,4,7,{16}4h,3,
{8}2b,7,2,7,1,7,1,7,
{8}1b,6,1,6,2,6,2,{16}6h,5,
{8}4b,2,4,2,5,2,5,2,
{8}5b,3,5,3,6,3,6,{16}3h,4,
{8}5b,7,5,7,
{12}5bh,4,3,2,1,8,7/4bh,5,6,7,8,1,
{16}2/4bh,5,6,7,8,1,2,3,
{8}4b,5,4,5,3,6,3,6,
{8}1b,2,8,7,
{12}1,2,3,8,7,6,
{8}2b,3,7,6,2,3,7,6,
{12}1b,2,3,7,6,5,2,3,4,8,7,6,
{24}5xbh[24:10],,,,1x,2x,3xbh[24:10],,,,,6x,7xbh[24:10],,,,,4,5bh[24:12],,,,,8,1bh[24:6],,,,,,{8}Cf,,,,
1h[8:3]/8h[8:3],,,,2h[16:2]/4h[16:2],,1h[16:2]/7h[16:2],,6h[16:2]/5h[16:2],,2bh[4:1]/7bh[4:1],,B2/B7`Cf,,,,,,
{4}B1h[4:8],B2h[4:8],B3h[4:8],B4h[4:8],B5h[4:8],B6h[4:8],B7h[4:8],B8fh[4:8],,,,,,,,,
{16}1xb,2,3,4,7xb,6,5,4,2xb,3,4,5,8xb,7,6,5,1b,2,3,4,7b,6,5,4,2b,3,4,5,8b,7,6,5,
2xbh,3,4,5,6,7,8,1,
{16}2b,3,4,5,6,7,8,1,
E2/2bh,E3/3,E4/4,E5/5,E6/6b,E7/7,E8/8,E1/1,
{48}E2/2bh,D3,E3/3,D4,E4/4,D5,E5/5,D6,E6/6b,D7,E7/7,D8,E8/8x-4[4:3]b*w4[4:3],D1,E1/1,D2,E2/2b,D3,E3/3,D4,E4/4b,D5,E5/5,D6,{4}E6/6b,,,
E
