&title=続編未遂
&artist=葉月ゆら
&first=-0.02
&des=Yaegaki
&lv_5=13+
&des_5=Yaegaki
&inote_5=
(145){4},{8},,,,,,,,,,,,,,,,1/7,
2,{16}5,3,,6,{8}4,{16}7,5,
,,{8}8h[16:5],{4}5V38[4:1],,7h[8:1],
6h[8:1],{8}5/1,2,{16}4,3,,5,{8}4,{16}6,5h[16:3],
,,6,6,{12}3,4,2,6,5,7,4/8,{24},2,1,2,
{8}1,3/8,4b/7b,{16}6,5h[8:1],,7,,4/8h[16:3],,,{8}3,
2,1/6,2/5,{16}3,4h[8:1],,2,,5/1h[16:3],,,{8}7,
8/2,7/3,4/6,{16}2,1,,3/8,,6,5,7,{8}7,
2/6,8/1,4/6,{16}3/7,3/7,,2/6,,7/8h[16:5],,,6,5,
{8}4,1,2b/5b,{16}3,4h[8:1],,2,,5/1h[16:3],,,{8}6,
7,3/8,7/4,{16}6,5h[8:1],,7,,4/8h[16:3],,,{8}3,
2,1/7,6/2,{16}3,4,,5/2,,6,8,7,{8}7,
1/6,2/5,3/4,{16}2/6,6/2,,1/5,,4b<7[8:1]/8b>3[8:1],,,,,,,,,{4}2h[4:1],
4-6[8:1],1h[8:1],
2,4/7h[4:1],5>3[8:1],8h[8:1],
7,2/6h[4:1],1-6[8:1],5h[8:1],
4<7[8:1],1>4[8:1],8-4[8:1],2-5[8:1],
7pp6[16:5],{8}4,3,{4}2h[4:1],4qq5[16:5],
5,{8}6,7,{4}8h[4:1],6pp5[16:5],
5,{8}3,2,{4}1h[8:1],{8}4,2-5[8:1],
,2/4,,7-3[8:1],5,7,{4}1p5[8:1]*-6[8:1],
1,{8}3/4,{16}2,1,,3/8,,4/7,,,{8}6/5,
7/4,3,2/8,{16}7,1,,6,,5qq3[16:3]/2pp4[16:3],,,,,,,,,{8}2/6,
{16}1,8,{8}1,6/2,{16}1,8,{8}1,
{4}6h[8:1]/2h[8:1],{8}5/1,{16}4,3,{8}4,1/5,{16}4,3,{8}4,
{4}1h[8:1]/5h[8:1],{8}7/8,{16}6,5,,7/4,,3/8,,,{8}2/1,
3/8,7,6/4,{16}3,5,,2,,7qq5[8:1]/1pp3[8:1],,,,,,,,,{4}8<1[8:5],
,4pp6[8:1],
{12},,,2,2,8,8,3,3,2/5,{24},{8}3/6,
{16}4/7,7/4,,8/1,{8}1b/8b,{16}3-6[8:1],4,,4,{8}3,{16}7-3[8:1],,,8,
{8}7,1,2/4,{16}5-1[8:1],3,,7,{8}5,8-4[32:3],{16}2,2h[16:3],
,,,,6b,3,4,1,4,3,{8}6h[16:1],{16}3b,6,5,8,
5,6,{8}3h[16:1],{16}6b,4,5,2,4,3,{8}5,6/2,{16}1/8,1h[16:3]/8h[16:3],
,,,,{8}2b/7b,{16}6>3[8:1],5,,5,{8}6,{16}2q6[8:1],,,1,
{8}2,8,7/5,{16}4q8[8:1],6,,2,{8}4,1q5[8:1],{16}7,7h[16:3],
,,,,3b,6,5,8,5,6,{8}2h[16:1],{16}6b,3,4,1,
4,3,{8}7h[16:1],{16}2b,8,1,6,8,7,{8}1,6/2,{16}3q7[8:1]/5p1[8:1],5/3,
,,,,,,,1/7,{8}6/2,{16}3,4h[16:3],,,{8}3-8[8:1],
6V84[16:3],3,6,{16}2,2-4[48:5],,4-1[48:5],,2,,,{8}8,
7,6,5/2,{16}3,4V61[16:3],,1h[8:1],,4,,,{8}2,
3,4,5/7,{16}8,1,,2/4<7[8:1],,5/3,,,{8}1,
2,3,4/6,{16}7,8,,2/6V47[16:3],,7/1,,,{8}3,
2,1,6/8,{16}5,4,,7/3V51[4:1],,2/8,,,{8}6,
7,8,3/1,{16}4,5,,6/8,,2,{8}4,3/5,
6/4,5/7,8/1,{16}2/6,2/6,,3/7,,4/5,,,3/6,2/7,
{4}8/1p4[8:1]*p5[8:1],1bpp8[2:3]/8b<1[16:21],{8},,,,,,,,,,,,,,2/5,
{16}4,3,,1,{8}2,3/8,{16}5,6,
,8,{8}7,{16}3,5,2,4,3,6,4,5,2,4,3,6,
4,5,{8}3,{16}7,5,6,4,5,3,4,2,2,1,1,3,
,2,{8}8,{12}3,5,4,7,1,8,{48}2,,,4,,,{16}3,5,
4,6,5,7,{8}7h[8:1],{16}1,8,,2/7,,3/5,,7,{8}8,
6,1/5,2/6,{16}3/7,7/3,,4/8,,1/5,{4}5>2[8:1]/1<6[8:1],
,7/3h[4:1],{8}4,5,{4}4/6h[4:1],
{8}5,4,{4}5/2h[4:1],{8}4,5,{4}4/6-2[8:1],
6/7,{16}8/1,,,2/4,,3/5,,4/6,,5/7,,8/1,
{8}8/1,2/5,{16}3/4,4/3,,7/5,,8/4,,2b/1b>7[16:3],,,,,,,,,{4}1p8[4:3],
{8},,7,7,
,,5p4[4:3],5,,,3,3,
,,1p8[4:3],1,,,7,7,
,,5<8[4:1],5,{16},,,,1,,,2/8,
,,{8}3/7,{4}4>1[8:1],{8}6/4,5,{4}4<7[8:1],
{8}4/2,1,{4}8>3[8:1],{8}8/6,7,{4}8<5[8:1],
{8}8/2,3,{4}4<7[8:1]*>1[8:1],4,7<4[8:1]/1>4[8:1],
7/1,{12}2,4,3,6,4,5,3,3,4,
2,2,3,1-5[8:1],,,{4}1,{12}6/4,4/6,7/3,
3/7,8/2,8/2,1<3[2:1],,,,,,{4}1<5[4:1],
,1b,{8},,,6/3,
{16}7/2,7/2,,1/8,{8}8b/1b,{16}3V52[16:3],5,,5,{8}3,{16}8-5[8:1],,,1,
{8}8,1,2/6,{16}5V31[8:1],3,,7,{8}5,6v8[8:1],{16}2,2h[16:3],
,,,,3b,6,5,8,5,6,{8}3h[16:1],{16}6b,3,4,1,
4,3,{8}6h[16:1],{16}2b,4,3,6,4,5,{8}3,2/6,{16}1/8,1h[16:3]/8h[16:3],
,,,,{8}7b/2b,{16}6qq7[16:3],4,,4,{8}6,{16}1>4[8:1],,,8,
{8}1,8,7/3,{16}4<8[8:1],6,,2,{8}4,3qq1[8:1],{16}7,7h[16:3],
,,,,7b,5,6,3,8,5,{8}6h[16:1],{16}2b,4,3,6,
1,4,{8}3h[16:1],{16}6b,8,7,2,8,1,{8}7,6/2,{16}3/5,5q1[8:1]/3p7[8:1],
,,,,,,,2/6,{8}5/3,{16}4,6h[16:3],,,{8}2-5[8:1],
7V51[16:3],2,7,{16}2,2V48[16:3],,8,,2,,,{8}7,
6,5,4/2,{16}1,8V25[16:3],,7h[8:1],,8,,,{8}6,
7,8,1/3,{16}4,5,,6/8<5[8:1],,1/7,,,{8}3,
2,1,6/8,{16}5,4,,3/1V36[4:1],,2/8,,,{8}6,
7,8,3/1,{16}4,5,,6/8V62[4:1],,7/1,,,{8}5,
4,3,2/8,{16}1,7,{8}1,{16}8,2,{8}8,{16}3,1,
{8}2,{16}7,8,6,1,5,2,4,3,7,5,6,4,{8}7,
{4}8h[8:1]/2h[8:1],{8}7b/3b,{16}4,5,,6/2,,8/7h[16:3],,,{8}6,
5,4/8,2/6,{16}1,8,,7/3,,1/2h[16:3],,,{8}3,
4,5,6/3,{16}2,1,,8/3,,6,5,7,{8}7,
4/8,7/3,5/1,{16}2/6,2/6,,3/7,,2/1h[16:3],,,3,4,
{8}5,8,2b/6b,{16}5,4,,3/7,,1/2h[16:3],,,{8}3,
4,5/1,7/3,{16}1,8,,2/6,,3/4h[16:3],,,{8}1,
2,3,6/4,{16}7,8,,1/6,,3,4,2,{8}2,
7/3,5/4,2/6,{16}7/3,7/3,,4/8,,5>2[8:1]/1<6[8:1],,,,,,,,,1,
2,3,4,5/8,7,6,5,4/1,2,3,4,
5,6,7,8,{4}5/1,{16}3,4,1,6,2,8,4,6,
1-5[8:1],5,2,7,{4}1b,
E
