&title=冥
&artist=Amuro vs Killer
&first=0.07
&des=老登-100号 vs 小登皆传
&lv_5=13+(变)
&lv_6=13+
&inote_5=(200)
{8},,,,,,,,,,,,,,,,
{8}2,5,3,6,4,6h[32:21],5h[8:4],,,,,,,,,,
{32}3h[32:33],4h[32:31],,,
{8},,,,,,,,,,,,,,,
{8}7,5,6,4,5,3h[32:21],4h[8:4],,,,,,,,,,
{8}2,5,3,6,4,6h[32:21],5h[8:4],,,,,,,,,,
{16}4,,7,,3,,8,,2,1,2,,7,,1,,6,,2,,5,,3,4,3,4,3,,6,5,6,,
{16}7,,1,,6,,2,,3,4,3,,8,,2,,6,5,6,5,6,,3,4,3,5,3,6,2,7,2,8,
{16}3,,7,,4,,8,,6,5,6,,3,,5,,2,,6,,1,,7,8,7,8,7,,2,1,2,,
{16}5,,3,,6,,2,,7,8,7,,4-1[8:7],,5-8[4:3],,
{1},
{8}7^4[8:1],,8,1-5[8:1],,6,7-3[8:1],,
{8}2^5[8:1],,1,8-4[8:1],,3,2-6[8:1],,
{8}5^8[8:1],,4,3-7[8:1],,6,5-1[8:1],,
{16}2,,3,,4,,7,,4,5,3,,6,,1,,
{8}7^4[8:1],,1,2-6[8:1],,4,5-8[8:1],,
{8}4^1[8:1],,7,6-2[8:1],,3,4-1[8:1],,
{8}6^1[8:1],,3,4-8[8:1],,7,6-1[8:1],,
{16}3,,4,,5,,8,,6,5,7,,4,,1,,
{8}3-6[8:1],,1,8-4[8:1],,3,2-6[8:1],,
{8}7-4[8:1],,2,1-5[8:1],,6,7-3[8:1],,
{8}4-1[8:1],,7,6-2[8:1],,3,4-8[8:1],,
{16}7,,6,,5,,1,,3,4,2,,5,,8,,
{8}6-1[8:1],,2,3-7[8:1],,6,5-8[8:1],,
{8}1-4[8:1],,7,6-2[8:1],,3,4-1[8:1],,
{8}8-5[8:1],,2,3-7[8:1],,7,6-1[8:1],,
{2}3,
{16},6,5,4,3,2,1,8,
{16}3,6,4,7,3,8,2,1,3,8,2,7,1,6,2,5,3,4,2,1,3,8,4,7,
{16}2,3,4,5,6,7,8,1,
{16}6,5,4,3,2,1,8,7,4,3,2,1,8,7,6,5,7,8,1,2,3,4,5,6,2,3,4,5,6,7,8,1,
{16}5,3,6,2,7,1,8,2,1,3,8,4,7,5,6,4,5,3,4,2,5,1,6,8,7,1,6,2,5,3,6,4,
{16}7,8,1,2,3,4,5,6,3,4,5,6,7,8,1,2,6,5,4,3,2,1,8,7,3,2,1,8,7,6,5,4,
{16}6,5,7,4,8,3,1,2,4,3,5,2,6,1,7,8,7,6,5,4,2,3,4,5,6,5,4,3,1,2,3,4,
{16}6,7,8,1,2,3,4,5,2,3,4,5,6,7,8,1,6,5,4,3,2,1,8,7,3,2,1,8,7,6,5,4,
{16}2,1,3,8,4,7,5,6,8,7,1,6,2,5,3,4,2,3,4,5,7,6,5,4,3,4,5,6,8,7,6,5,
{16}3,2,1,8,7,6,5,4,7,6,5,4,3,2,1,8,3,4,5,6,7,8,1,2,7,8,1,2,3,4,5,6,
{999}7b,
(100)
{16},,,,6,6,5,,3,,,5,,,4,4,
{16},,5,5,,3,3,,6,6,,4,,6,5,4,
{16}3,,5,5,,4,4,,6,,,4,,,5,5,
{16},3,4,5,,6,6,,4,4,,5,,6,5,4,
(110)
2b,6,4,5,3,6,4,5,4,6,3,5,3,6,4,5,
(120)
2b,5,3,6,4,5,4,6,3,5,3,4,3,6,4,5,
(130)
2b,6,4,6,3,5,4,5,3,6,4,5,3,5,4,6,
(140)
2b,6,4,5,3,5,4,6,3,6,4,5,4,5,3,6,
(150)
2b,6,4,5,3,5,4,6,2b,5,3,6,4,6,3,5,
(160)
2b,6,4,5,3,5,4,6,2b,5,4,6,3,5,3,6,
(170)
2b,6,2b,6,4,5,2b,6,2b,5,2b,6,4,5,2b,6,
(180)
2b,6,4,5,2b,6,4,5,2b,6,4,5,2b,6,4,5,
(190)
2b,6,2b,5,2b,4,2b,3,2b,6,2b,5,2b,4,2b,3,
(200)
2b,6,4,5,3,5,4,6,3,6,4,5,3,6,4,5,
{24}3,2,1,8,7,6,2,1,8,7,6,5,1,8,7,6,5,4,8,7,6,5,4,3,,
(999)
{384},
(200)
{16}1h[4:1],,8,,6,,3,4,2h[4:1],,8,,7,,5,4,6h[4:1],,3,4,,8,1,7,2h[4:1],,5,,6,,3,,7h[4:1],,4,,2,,3,1,2h[4:1],,8,,7,,3,,5h[4:1],,4,,3,,2,8,1h[4:1],,4,,5,,6,8,7h[4:1],,1,,2,,3,5,4h[4:1],,,,8,,6,,2,1,3,8,4,7,5,6,4h[4:1],,8,,7,,3,,5h[4:1],,,4,3,2,1,8,7,6,5,4,3,2,1,8,6,7,8,1,2,3,4,5,6,7,8,1,2,3,4,5,
{16}6h[4:1],,,,2,,3-6[8:1],4,5-1[8:1],,3,,5,,2,,
{16}4,,,,7,,6-3[8:1],5,4-8[8:1],,6,,4,,6,,
{16}5h[4:1],,,,8,,1-4[8:1],2,3-7[8:1],,1,,3,,5,,
{16}6,,,,2,,8-5[8:1],7,6-2[8:1],,8,,6,,4,,
{16}3h[4:1],,8,,7,,4,,2,,1,,3,,7,,
{8}4h[4:1],8,7,2,5h[4:1],3,7,1,
{16}2,3,4,5,1,8,7,6,4,3,2,1,7,6,5,4,2,3,4,5,6,7,8,1,6,5,4,3,2,1,8,7,
{16}2,,2,3,4,5,8,,8,7,6,5,3,,3,2,1,8,
{16}4,5,6,7,8,1,2,3,4,5,6,7,8,1,
{16}4h[4:1],,5,,6,3,7,,8h[4:1],,1,,2,6,3,,5h[4:1],,4,,3,7,2,,1h[4:1],,7,,6,3,5,,
{16}2,1,8,7,6,5,4,3,7,8,6,1,5,2,4,3,1,2,8,3,7,4,6,5,
{16}7,4,6,3,5,2,4,1,
{16}3,2,1,8,7,6,5,4,
{16}2,1,3,8,4,7,5,6,8,7,1,6,2,5,3,4,2,5,3,6,4,7,5,8,
{8}3b,7,2,5,3,8,2,7,3,6,4,8,1,7,2,6,3,5,4,7,8,6,1,5,2,4,3,6,1,
(180)
5,
(175)
7,,
1,8,2,7,3,6,4,5,
(165)
6h[2:1],
,,,
(140)
{32}2,,,,,,,,,,,
(100)
{64}3,,,,,,,,,,,
(110)
{16}6,,,,
(90)
{32}5,,,,4,,,,
(66)
{8}6,3h[8:1],
{64}5>1[2:1],4<8[2:1],,,
&inote_6=(200)
{8},,,,,,,,,,,,,,,,
{8}2,5,3,6,4,6h[32:21],5h[8:4],,,,,,,,,,
{32}3h[32:33],4h[32:31],,,
{8},,,,,,,,,,,,,,,
{8}7,5,6,4,5,3h[32:21],4h[8:4],,,,,,,,,,
{8}2,5,3,6,4,6h[32:21],5h[8:4],,,,,,,,,,
{16}4,,7,,3,,8,,2,1,2,,7,,1,,6,,2,,5,,3,4,3,4,3,,6,5,6,,
{16}7,,1,,6,,2,,3,4,3,,8,,2,,6,5,6,5,6,,3,4,3,5,3,6,2,7,2,8,
{16}3,,7,,4,,8,,6,5,6,,3,,5,,2,,6,,1,,7,8,7,8,7,,2,1,2,,
{16}5,,3,,6,,2,,7,8,7,,4-1[8:7],,5-8[4:3],,
{1},
{8}7^4[8:1],,8,1-5[8:1],,6,7-3[8:1],,
{8}2^5[8:1],,1,8-4[8:1],,3,2-6[8:1],,
{8}5^8[8:1],,4,3-7[8:1],,6,5-1[8:1],,
{16}2,,3,,4,,7,,4,5,3,,6,,1,,
{8}7^4[8:1],,1,2-6[8:1],,4,5-8[8:1],,
{8}4^1[8:1],,7,6-2[8:1],,3,4-1[8:1],,
{8}6^1[8:1],,3,4-8[8:1],,7,6-1[8:1],,
{16}3,,4,,5,,8,,6,5,7,,4,,1,,
{8}3-6[8:1],,1,8-4[8:1],,3,2-6[8:1],,
{8}7-4[8:1],,2,1-5[8:1],,6,7-3[8:1],,
{8}4-1[8:1],,7,6-2[8:1],,3,4-8[8:1],,
{16}7,,6,,5,,1,,3,4,2,,5,,8,,
{8}6-1[8:1],,2,3-7[8:1],,6,5-8[8:1],,
{8}1-4[8:1],,7,6-2[8:1],,3,4-1[8:1],,
{8}8-5[8:1],,2,3-7[8:1],,7,6-1[8:1],,
{2}3,
{16},6,5,4,3,2,1,8,
{16}3,6,4,7,3,8,2,1,3,8,2,7,1,6,2,5,3,4,2,1,3,8,4,7,
{16}2,3,4,5,6,7,8,1,
{16}6,5,4,3,2,1,8,7,4,3,2,1,8,7,6,5,7,8,1,2,3,4,5,6,2,3,4,5,6,7,8,1,
{16}5,3,6,2,7,1,8,2,1,3,8,4,7,5,6,4,5,3,4,2,5,1,6,8,7,1,6,2,5,3,6,4,
{16}7,8,1,2,3,4,5,6,3,4,5,6,7,8,1,2,6,5,4,3,2,1,8,7,3,2,1,8,7,6,5,4,
{16}6,5,7,4,8,3,1,2,4,3,5,2,6,1,7,8,7,6,5,4,2,3,4,5,6,5,4,3,1,2,3,4,
{16}6,7,8,1,2,3,4,5,2,3,4,5,6,7,8,1,6,5,4,3,2,1,8,7,3,2,1,8,7,6,5,4,
{16}2,1,3,8,4,7,5,6,8,7,1,6,2,5,3,4,2,3,4,5,7,6,5,4,3,4,5,6,8,7,6,5,
{16}3,2,1,8,7,6,5,4,7,6,5,4,3,2,1,8,3,4,5,6,7,8,1,2,7,8,1,2,3,4,5,6,
{999}7b,
(100)
{16},,,,6,6,5,,3,,,5,,,4,4,
{16},,5,5,,3,3,,6,6,,4,,6,5,4,
{16}3,,5,5,,4,4,,6,,,4,,,5,5,
{16},3,4,5,,6,6,,4,4,,5,,6,5,4,
(110)
2b,6,4,5,3,6,4,5,4,6,3,5,3,6,4,5,
(120)
2b,5,3,6,4,5,4,6,3,5,3,4,3,6,4,5,
(130)
2b,6,4,6,3,5,4,5,3,6,4,5,3,5,4,6,
(140)
2b,6,4,5,3,5,4,6,3,6,4,5,4,5,3,6,
(150)
2b,6,4,5,3,5,4,6,2b,5,3,6,4,6,3,5,
(160)
2b,6,4,5,3,5,4,6,2b,5,4,6,3,5,3,6,
(170)
2b,6,2b,6,4,5,2b,6,2b,5,2b,6,4,5,2b,6,
(180)
2b,6,4,5,2b,6,4,5,2b,6,4,5,2b,6,4,5,
(190)
2b,6,2b,5,2b,4,2b,3,2b,6,2b,5,2b,4,2b,3,
(200)
2b,6,4,5,3,5,4,6,3,6,4,5,3,6,4,5,
{24}3,2,1,8,7,6,2,1,8,7,6,5,1,8,7,6,5,4,8,7,6,5,4,3,,
(999)
{384},
(200)
{16}1h[4:1],,8,,6,,3,4,2h[4:1],,8,,7,,5,4,6h[4:1],,3,4,,8,1,7,2h[4:1],,5,,6,,3,,7h[4:1],,4,,2,,3,1,2h[4:1],,8,,7,,3,,5h[4:1],,4,,3,,2,8,1h[4:1],,4,,5,,6,8,7h[4:1],,1,,2,,3,5,4h[4:1],,,,8,,6,,2,1,3,8,4,7,5,6,4h[4:1],,8,,7,,3,,5h[4:1],,,4,3,2,1,8,7,6,5,4,3,2,1,8,6,7,8,1,2,3,4,5,6,7,8,1,2,3,4,5,
{16}6h[4:1],,,,2,,3-6[8:1],4,5-1[8:1],,3,,5,,2,,
{16}4,,,,7,,6-3[8:1],5,4-8[8:1],,6,,4,,6,,
{16}5h[4:1],,,,8,,1-4[8:1],2,3-7[8:1],,1,,3,,5,,
{16}6,,,,2,,8-5[8:1],7,6-2[8:1],,8,,6,,4,,
{16}3h[4:1],,8,,7,,4,,2,,1,,3,,7,,
{8}4h[4:1],8,7,2,5h[4:1],3,7,1,
{16}2,3,4,5,1,8,7,6,4,3,2,1,7,6,5,4,2,3,4,5,6,7,8,1,6,5,4,3,2,1,8,7,
{16}2,,2,3,4,5,8,,8,7,6,5,3,,3,2,1,8,
{16}4,5,6,7,8,1,2,3,4,5,6,7,8,1,
{16}4h[4:1],,5,,6,3,7,,8h[4:1],,1,,2,6,3,,5h[4:1],,4,,3,7,2,,1h[4:1],,7,,6,3,5,,
{16}2,1,8,7,6,5,4,3,7,8,6,1,5,2,4,3,1,2,8,3,7,4,6,5,
{16}7,4,6,3,5,2,4,1,
{16}3,2,1,8,7,6,5,4,
{16}2,1,3,8,4,7,5,6,8,7,1,6,2,5,3,4,2,5,3,6,4,7,5,8,
{8}3b,7,2,5,3,8,2,7,3,6,4,8,1,7,2,6,3,5,4,7,8,6,1,5,2,4,3,6,1,
(180)
5,
(175)
7,,
1,8,2,7,3,6,4,5,
(165)
6h[2:1],,,,
(140)
{32}2,,,,,,,,,,,
(100)
{64}3,,,,,,,,,,,
(110)
{16}6,,,,
(90)
{32}5,,,,4,,,,
(66)
{8}6,3h[8:1],
{64}5>1[2:1],4<8[2:1],,,
