&title=Vertigo [Stage 5]
&artist=並木学
&first=0
&des=Caramelo.
&lv_5=12+
&inote_5=(150)
{1},8w4[2:7],,,,3h[8:15]/5h[8:15],,
{4}4,4,4,4,4,4,4,4,4,4,4,4h[4:3],,3>5[4:1],,,
1-4[8:1],21,{16}6-1[8:1],5,{8},67,,
1,{16}1,8,{8}2,1,8-3[8:1]/7-4[8:1],,78,,
34,{16},3,{8}4,3,{16}6,5,,3,4,2,,6,
5-1[8:1],,,7,{8}5-2[8:1],6,5-8[8:1]/3,4,65,,
1-5[8:1]/4,,81,,{16}6-2[8:1],5,{8},76,,
3,{16}3,4,{8}2,5,4-7[8:1]/3-8[8:1],,34,,
78,{16},7,{8}8,7,{16}2,1,,7,8,6,,2,
1-6[8:1],,,8,{8}1-4[8:1],7,1w5[8:1]/2,3,,,
8-5[8:1],,78,,{16}3-8[8:1],4,{8},32,,
8,{16}8,1,{8}7,8,1-6[8:1]/2-5[8:1],,21,,
65,{16},6,{8}5,6,{16}3,4,,6,5,7,,3,
4-8[8:1],,,2,{8}4-7[8:1],3,4-1[8:1]/6,5,34,,
8-4[8:1]/5,,18,,{16}3-7[8:1],4,{8},23,,
6,{16}6,5,{8}7,4,5-2[8:1]/6-1[8:1],,65,,
21,{16},2,{8}1,2,{16}7,8,,2,1,3,,,
{4}4h[4:3]/1s5[2:1],,,,
6<1[8:1],16,{16}3>8[8:1],4,{8},3<6[8:1]/8,,
36,{16},7,{8}8-5[8:1],6,1-4[8:1],,14,{16}6,5,
7,6,,8,{8}1,7,{16}2,1,,3,4,1,,6,
{8}5-1[8:1],{16},7,{8}5-3[12:1],6-8[12:1],5,6,1-5[8:1],,
4>1[8:1],,54,,{16}7>2[8:1],8,{8},76,,
5,{16}3,4,{8}2>5[8:1],1,8<5[8:1],,18,,
24,{16},3,4,,3,,6,5,,2,1,3,,7,
8<5[8:1],,,1,{8}8,3,2-4[8:1]/4-8[8:1],15,,,
3>8[8:1],,83,,{16}6<1[8:1],5,{8},6>3[8:1]/1,,
63,{16},2,{8}1-4[8:1],3,8-5[8:1],,85,{16}3,4,
2,3,,1,{8}8,2,{16}7,8,,6,5,8,,3,
{8}4-8[8:1],{16},2,{8}4-6[12:1],3-1[12:1],4,3,8-4[8:1],,
5<8[8:1],,45,,{16}2<7[8:1],1,{8},23,,
4,{16}6,5,{8}7<4[8:1],8,1>4[8:1],,81,,
75,{16},6,5,,6,,3,4,,7,8,6,,2,
{8}1-3[8:1],8-4[8:1],1-5[8:1],8-6[8:1],1,8,{16}1w5[2:3],1b,,,
{4},,,,,,,2w6[2:3],,,,,,,,3w7[2:3],,,,,,,,4w8[2:3],,,,,,,,
{16},,7,8qq5[16:21],{4}1,1,1,1,1,1,1,{16}1,,6,7qq4[16:21],{4}1,1,1,1,1,1,1,
{16}1,,5,6qq3[16:21],{4}1,1,1,1,1,1,1,{16}1,,4,5<8[16:9],{4}1,1,1,1,
{12}1,8,7,1,8,7,{16}1,8,7,6,{32}1,8,7,6,5,4,3,2,
{8}1b-5[8:1],,6-2[8:1]/1-7[8:1],7,1-5[8:1]*-3[8:1]/6,,1-4[8:1],,
1/8-5[8:1],7,3<6[8:1]/8,2,3/7-3[8:1],8,17,{16}2,8,
{8}1-5[8:1],,1-3[8:1]/8-4[8:1],7,1>5[8:1]*<5[8:1]/8,,1,,
7-5[8:1],8-4[8:1],7,8,{16}1,2,1,2,{8}8,17,
6-2[8:1]/2,,3-1[8:1]/6-4[8:1],4,6-2[8:1]*-8[8:1]/3,,6-4[8:1],,
1-7[8:1]/6,2,5V31[8:1]/1,6,7-5[8:1]/5,8,17,{16}2,4,
{8}3-7[8:1],,5-1[8:1]/3-1[8:1],6,5-7[8:1]*v8[8:1]/3,,5,,
2-4[8:1],1-5[8:1],2,1,{16}3,,24,,6,5,7,4,
{8}8b-4[8:1],,3-7[8:1]/8-2[8:1],2,8-4[8:1]*-6[8:1]/3,,8-5[8:1],,
8/1-4[8:1],2,6>3[8:1]/1,7,6/2-6[8:1],1,82,{16}7,1,
{8}8-4[8:1],,8-6[8:1]/1-5[8:1],2,8<4[8:1]*>4[8:1]/1,,8,,
2-4[8:1],1-5[8:1],2,1,{16}8,7,8,7,{8}1,82,
3-7[8:1]/7,,6-8[8:1]/3-5[8:1],5,3-7[8:1]*-1[8:1]/6,,3-5[8:1],,
8-2[8:1]/3,7,4V68[8:1]/8,3,2-4[8:1]/4,1,82,{16}7,5,
{8}6-2[8:1],,4-8[8:1]/6-8[8:1],3,4-2[8:1]*v1[8:1]/6,,4,,
7-5[8:1],8-4[8:1],7-3[8:1],8-2[8:1],7,8,5bq1[8:1],,
5p8[8:1]/4,3,5q2[8:1]/6,7,5p1[8:1]/4,3,5-8[8:1]/6,7,
5-2[8:1]/4,3,5q1[8:1]/6,7,5p8[8:1]/4,3,5q2[8:1]/6,7,
5p1[8:1]/4,3,5-8[8:1]/6,7,5-2[8:1]/4,3,5/6,7,
{16}2,8,3,7,4,6,3,5,2,6,1,7,{24}8,8,8,8,8,8,8bw4[2:7],
