&title=HERO
&artist=Ayase
&first=0
&des_5=CAl
&lv_5=13
&des=CAl
&inote_5=(190)
{1},
{4}3q5[4:5],,6,,,B6,B7,,8<5[8:3],,3,
{16}3,4,1xbh[2:1],,,,
{8}3,4,5,2-6[8:1]/6-1[8:1],,
{4}2b-7q5[8:5],,,,
{8}6,6,
{4}6^1[8:1],3^8[8:1],5v2[8:1],4v7[8:1],6^1[8:1],3>8[8:1],7-4[8:1]*-3[8:1],,6x^1[8:1],3^8[8:1],5v2[8:1],4v7[8:1],6^1[8:1],3>8[8:1],5-8[8:1]*-2[8:1],5,
{4}1q6[8:1],8p3[8:1],2^5[8:1],7^4[8:1],1q6[8:1],8p3[8:1],2-5[8:1]*-7[8:1],,8p3[8:1],1q6[8:1],7^4[8:1],2^5[8:1],8p3[8:1],1q6[8:1],8w4[8:1],8b,
{4}Cf,6,6/3,6/4,3h[4:1]/6,6,5h[4:1]/6,6,3,3/7,3/6,3/5,3/4h[4:1],3,3/7h[4:1],3,
{4}6/5-3[8:1],6,6/2-4[8:1],6,7/5-2[8:1],7,7/1-4[8:1],7,8-5[8:1]/2,2,4-7[8:1]/2,{8}2,3xh[8:5],,,8,,
{4}1-5[8:1],1b/3qq7[2:1],
{8}6,6,5,5,4h[4:1],,8,8p6[8:3],,1,2,3,4h[4:1],,6pp2[2:1],,
{8}3,3,4,4,5h[4:1],,1,1q3[8:3],,8,7,6,5h[4:1],,3qq7[2:1],,
{8}6,6,5,5,4h[4:1],,1,1h[2:1],,2,3,4,5bv8[8:1]*-1[8:1],,,,
{8}2/7,2,2/5,2,1-4[8:1]/4-7[8:1],,1/4,,8-6[8:1]/2-6[8:1],,8w4[8:1]/2,,8b,,Cf,,
{4}6h[4:7],B3,B4,B5,B6,B7,B8,B1,
{8}2h[4:1]/B6,,,8x/B4,,1x/B5,,7x/B3,,4p1[2:1]/6q1[2:1],,,,,,,
{8}2x/8x,2,2/4,2,2/6,,7x/1x,7,7/5,7,7/3,6,4/5,3,1/2,8,7bqq3[2:1],,1,1,1,1,1,1,2bx/4bx,1bx/8bx,7b/5b,,4-8[8:1],,,,
{8}1b-5[8:1]/2b-4[8:1],,1/2-6[8:1],,8,8<5[8:1],,8>3[8:1],,8,,5,6/4,7,1/8,2,7-5[8:1]/3-5[8:1],,7^2[8:1]/3,,7/4,4,,5-1[8:1],,8,8b/A1f,,
{4}3/5,7/8>4[4:1],4<8[4:1],8>4[4:1],4,8V64[4:1],4V28[4:1],8V64[4:1],4,1>4[8:1],1<6[8:1],1-5[8:1],1,7/3,
{16}6,5,6,5,6,,3,4,3,4,3,,2b/5b,,,,
{16}7/4,,,,1-4[8:1]/5-8[8:1],,,,,C,,,,,7h[4:1]/3,,,,2,,
{8}1-5[8:1],1,8-4[8:1],8,2-6[8:1],2,7,,
{16}8-5[8:1]/4-1[8:1],,,,,C,,,
{8}2x,2xh[4:1],,8,8^3[8:1]*-4[8:1],,8b,,5,6,
{4}7h[8:1]/8h[8:1],7h[8:1]/2h[8:1],7h[8:1]/4h[8:1],
{8}7h[8:1]/5,5qq1[2:1],6h[8:1],,6h[8:1],,6h[8:1],,7,7,
{4}8-4[8:1],2-6[8:1]/8,2/7-3[8:1],7/3>4[16:7],B4h[4:1]f,,1-5[8:1],,
{8}8b-4[8:1]/7b-4[8:1],,8^3[8:1]/7,,5,5^8[8:1],,5/2^5[8:1],,1/2,,8,7/4,6,5/3,1,2-4[8:1]/7-4[8:1],,2^7[8:1]/7,,2/5,5pp8[2:1],,1,,2,2b,,
{4}4/7,2/1<5[4:1],5>1[4:1],1<5[4:1],5,1V35[4:1],5V71[4:1],1V35[4:1],5,8-5[8:1]*^6[8:1],8-3[8:1]*^2[8:1],8-4[8:1],8,2/6,
{16}3,4,2,4,3,,6,5,7,5,6,,7b/4b,,,,
{2}2bq4<3[8:13]/6h[2:1],,8h[4:3],,4xh[2:1]/8q2>7[8:11],,1h[4:1],2h[4:1],
{4}3,3,4,4,5h[8:1],5h[8:1],6h[8:1],6h[8:1],
{8}7,7,8,8,1,1,2,2,{32}3x,4,5,,7,,,,7,,,,6x,5,4,,2,,,,2,,,,{8}1,1,
{16}7,8,7,8,7h[4:1],,,,{32}1,2,3,4,5,6,7,8,1b/5b,,,,,,,,
{8}2-5[8:1]/6-2[8:1],,2<4[4:1],,3,3-7[8:1],,1-4[8:1]*-6[8:1],,1,,3,2/1-5[8:1],8,7/1,6,7^4[8:1]/3^8[8:1],,3-7[8:1],,1,1v6[8:1],,6<4[8:3],,5x,5xb-1[8:1],,
{4}5,4<8[4:1],8>8[2:1],C,8>8[2:1],C,8V24V68[2:1],C,8V24[4:1],C,6-8[8:1],1^3[8:1]/6-3[8:1],1w5[8:1],1b,
{8}7,7,8/1,{16}2,1,3,8,4,7,5b/6b,,,,
{8}7/3,,1z5[4:1]/8s4[4:1],,1/8,,,2,{8}8-4[8:1],8,1-5[8:1],1,7<4[8:1],7,3,,7/2,,
{4}1z5[4:1]b/8s4[4:1]b,1/8,
{8},7,6-3[8:1]/5-8[8:1],4,6-2[8:1]b/5-1[8:1]b,,,,8/3,,
{16}7x/5x,,,6,4,,3,,2x/4x,,,3,5,,6,,7x/5x,,,6,4,,3,,2x/4x,,,3,5,,6,,7x/5x,,,4,4,,3,,2x/4x,,,5,5,,6,,7x/4x,,6,5,6,,4,,1/3,,1/3,,2/8,,2/8,,
{8}1b/7b,6,6,4/5,3,3,1/2,3,4b/6b,7,7,1/8,2,2,3/4,5,
{16}5,6,7,8,2,3,4,5,8,7,6,5,8,1,2,3,
{4}8-4[8:1]/4,1-6[8:1]/8-6[8:1],1/8,
{64}1>8[8:7]/8,,E2/E8,,B2/B7,C,B3/B6,,E4/E6,,,,,,,,
{1},
{4}6xp4[4:5],,3,,,B3,B2,,1>4[8:3],,6,{8},B7h[8:5],,B5,B4,B3,B2,
E
