&title=Iridescent Gazer
&artist=polysha
&first=-0.35
&lv_5=14+
&des_5=マンゴ
&inote_5=
(160){4},{1},{4},,,{1}4bxp5[4:13]/5x<4<5b[4:13],
,,{4},,,{16},,,E2,
,C,,E6,,,,E8,,C,,E4,,,,E6,
,C,,E2,{8},{16}A4,E4,B3,B2,B1,E1,A8,{8},{16}E7,
,E6,,E5,,,,E4,,B2,,E1,,,,E5,
,C,,E1,{8},{16}7,6,5,4,3,8,7,6,5,4,
3bx/7bx,{8},{16}7xh[16:3],1,2,3,4,8bx,{8},{16}8xh[16:3],2,3,4,5,
1bx,{8},{16}1xh[16:3],3,4,5,6,7,8,1,2,5,6,7,8,
1bx/2,{8},{16}1b/2bx,3,4,{8}5,{16}8b/2bx,{8},{16}8b/2bx,3,4,{8}5,
{16}7b/2bx,{8},{16}7b/2bx,3,4,{8}5,{16}7,8,7,8,1,2,3,4,
7bx,7h[16:5],,1b,2,3,{8}4,{16}8bx,8h[16:5],,2b,3,4,{8}5,
{16}1bx,1h[16:5],,3b,4,5,{8}6,{16}8x,7,6,5,4/8,1,2,3,
4bx,4x,,8b/4h[16:3],7,6,{8}5,{16}3bx,3x,,7b/3h[16:3],6,5,{8}4,
{16}2h[4:1],8,7,6,5,4,3,2,1h[4:1],7,6,5,4,3,2,1,
{8}8/4,{16}E8,B7,,E2,{8}B2,{16}B6,E6,,E4,{8},C,
{16}E8,{4},{8},{16}Ch[16:3],{8},B3/B6,,{16}E8,B8,
{8}B1,{16}E7,B7,E5,B4,B3,B2,,E8/B7,,B3/E4,{8},B6/E6,
{2}E2/B2,{8}3/C,4,5,6,
7h[8:3],{16}E6,E5,{8},B3/E4,{4},{16}1,2,3,4h[16:7],
E6,{8},{16}E7,{8},E8/D8,,8,1,{24}7,2,{16},,{24},{8}5,
{16}E4,B3,B2,E2,E6,B6,B7,E8,E1,E2,E3,E4,
E5,E6,E7,E8,{32}Ch[4:1],{16},,,{64}1x,2x,3x,4x,{32}5x,{16},,,{4}8-4[8:1],
{8}8b/1,{16}2,2,,3,{8}3,4h[8:3],5,6,7,
{4}8v5[8:1],8/1,3-8[8:1],3/4,
{8}6h[8:1],{16}1,1,{8}7h[8:1],{16}2,2,{8}8h[8:3],3,4,5,
{4}7x/6x,5/8,{8}1/2,3,5/4,3,
{16}7-5[8:1],{8},{16}8,{8}7,1h[8:3],,{16}3,4,5,6,7,8,
1-6[8:1],{8},{16}2,{8}1,3,4/5,6,7/8,6,
{16}4b,5,4,5,4,5,4,5,3b,5,4,5,4,5,2b,5,
4,5,4,5,7b,5,4,5,4,5,8b,5,4,6,3,8,
{8}1h[2:1],{4},{16}7,6,{2}5h[4:1],
{16}8b/6b,{8},{16}1/3,{8},7/5,{16},2/4,{8},8/1,8/1,
8h[8:7]/1h[4:1],{4},{16}2,3,{2}4h[8:3],
{16}4b/8,{8},{16}3b/7,{8},2b/6,{16},1b/5,{8},8bh[8:1],{16}4,4,
{8}5h[8:1],3h[8:1],6h[8:1],4h[8:1],7h[8:1],8h[8:1],7h[8:1],5h[8:1],
6q2[8:1],6h[8:1],{4},{8}3,{16}1,1,8,8,6,6,
{8}4h[8:1],2h[8:1],8h[8:1],6h[8:1],1h[8:1],4h[8:1],{4}7h[4:1],
{8}8,{16}2,1,,6,{8}5,{16}3,4h[16:11],{4},{16}7,6,
{8}5h[8:7],{4},{16}3,2,{2}1h[8:3],
{16}1b/5b,{8},{16}8b/4b,{8},6b/2b,{16},7b/3b,{8},5-8[8:1]/4-1[8:1],5/4,
5/4,{4},{8}2h[8:3],{2}7h[4:1],
{16}8/1bx-5[16:1],{8},{16}1/8bx-4[16:1],{8},8/2bx-5[16:1],{16},2/7bx-4[16:1],{8},7bx,{16}2,2,
{8}1h[8:1],3h[8:1],4h[8:1],5h[8:1],6h[8:1],{16}2,2,5,3,{24}6,4,6,
{16}4,7,3,7,2,8,2,8,{8}1h[8:1],{16}7,6,{8}5,7/8,
{24}3,4,{12}3,{48},{16}5,{8}3,5,{24}2,1,{12}2,{48},{16}8,{8}2,8,
{4}Ch[8:1],{8}6h[8:1],{16}8,8,{8}5h[8:1],{16}8,8,6,1,6,1,
8bx,3,4,3,{8}5h[8:1],{16}1,6,5,8,{8}4h[8:1],{16}7,5,6,4,
5bx,3,4,1,{8}8h[8:1],{16}4,7,5,6,1,4,2,8,6,7,
1bx,6,5,6,{8}4h[8:1],{16}8,3,4,1,{8}5h[8:1],{16}2,4,3,5,
4bx,6,5,8,{8}1h[8:1],{16}5,2,4,3,8,5,7,1,4,3,
8x,8x,{8}1,{16}8x,8x,{8}7,{16}2,3,7,8,4,5,1,2,
8-4[8:1],{8},{16}7,{8}8,5,3,{16}7,5,5,4,5,5,
{24}4bx,3,2,1,{12}8,{24}5x,4,3,2,{12}1,{24}8bx,1,2,3,{12}4,{24}1x,2,3,4,{12}5,
{16}Ch[4:1],{4},{8},{16}8/C,,2/C,,7h[16:3],,{64}1x,2x,3x,4x,{8}5x,
8-4[12:1],{16}7,8,{8}7,{16}2-5[12:1],1,2,1,{8}2,{16}7,8,6,1,
7-4[12:1],8,6,1,{8}7,{16}2,2,5,3,6,4,7,5,8,6,
{8}1-5[12:1],{16}2,1,{8}2,{16}7-4[12:1],8,7,8,{8}7,{16}2,1,3,8,
2-5[12:1],1,3,8,{8}2,{16}7,7,4,6,3,5,2,4,1,3,
8x,7x,6x/8x,1x,2x/8x,7x,6x/8x,1x,2x/8x,7x,6x/8x,1x,{24}2x/8x,7,6,5,{16},{48},{8}8bh[4:1],
{4},{24}6,5,6,{16}4,7,4,7,3,8,3,8,
1h[8:1]/2h[8:1],{8},{16}3h[8:1]/4h[8:1],{8},7/8,{16}6h[8:1]/5h[8:1],{8},{16}1h[8:1]/2h[8:1],{8},3/4,
{4}7bh[64:21]/8h[16:3],{64}1,2,3,4,5,6bx,{16},,{32},{2}Ch[4:1],
{8}8>3[16:1],{16}7,7,{8},7<4[16:1],{16}8,8,{8},1>4[16:1],{16}8,8,
{8},8,{16}2,1,{8}2>5[8:1],2,2h[4:1],,7x,
1<6[16:1],{16}2,2,{8},2>5[16:1],{16}1,1,{8},8<5[16:1],{16}1,1,
{8},1,{16}7,8,{8}7<4[8:1],7,7h[4:1],,2x,
{16}3/8x,7,6,5,{8}8x,{16}6/1x,2,3,4,{8}1x,{16}8bx/2bx,7,6,5,
{8}4x/8x,{16}7bx/1bx,2,3,4,{8}5/1x,{16}8b/2,7,6,5,4/8,7,6,5,
4bx/8bx,7,6,5,{8}4/7,{16}7bx/1b,2,3,4,{8}5/2,{16}3/7x,6,5,4,
{8}3/7x,{16}4/1,2,3,4,{8}5,{16}7/3xh,6,5,4/8xh,3,2,{8}1/5xh,
{4},,{2}1b-5<7-3>1b[4:11],
{1},,{4},,,{8},{16}A8,
E8,
B7,B6,B5,E5,{4}A4,
