&title=Invisible Frenzy
&artist=Kobaryo
&first=0.1
&des=Colin
&lv_5=14+
&inote_5=(245.06){1}
,Ch[1:1],1b-4-1b[4:11],,,
{8},,,,,8hb[4:1]/5hb[4:1],,,{1}5b-8>2b[4:11]/7b-3b[4:11],,,
{8},,,,,4hb[4:1]/5hb[4:1],,,
{4}6x/2-6>4[4:3],6,7,8,
8x<5-1[4:3],1,2,3,
4x-2-8-3[4:3],8,7,6,
5x-7-1-5[4:3],1,2,3,
4,6x/3x,8x-3[8:1]/1x-6[8:1],8x/1x,
{16}4,5,4,5,3,6,3,6,2,7,2,7,1,8,1,8,
{1}1w5[2:1],
{4}4-2[8:1]/5-7[8:1],4b/5b,8z4[8:1]/1s5[8:1],8b/1b,
{8}3x-8[8:1]/6x,3,36,,27,,2/7,7-4[8:1],
,27,1q5[8:1],,1,8,8qq4[8:4],,
,2,3,,3,,2b-6[8:1],2b,
,8b-4[8:1],8b,,{16}1,2,3,45,6,7,8,1,
{8}3x,,3>8[8:1],4,3,,6<1[8:1],5,
6,,2-4[8:1],1x,2-6[8:1],,2/8hx[8:1],,
{4}4v7[8:1]/3v8[8:1],43,5-8[8:1]/1v4[8:1],51,
7h[8:1]/3h[8:1],6h[8:1]/2h[8:1],{8}3-7[8:1],7,3>4b[1:1],,
{4}1h[8:1],2h[8:1],3h[8:1],4h[8:1],
{8}3h[8:1],1,5h[8:1],7,4h[8:1],2,6h[8:1],8,
7h[8:1],5,1h[8:1],3,8h[8:1],6,2,27,,63,63,C,{16}8,1,8,1,{8}8,,
{32}2/7/E3,B3,B4,E5,,,,,,,,7/3/E7,B6,B5,E5,,,,,,,3/6/E3,B2,B1,E1,,,,,,,,
{8},36,5,1,8,1,Cf,,
{24}1,2,3,4,,,8,,,5,4,3,2,,,8,,,3,4,5,6,,,8,7,6,5,,,
{8}3,6,2-6[8:1],7-4[8:1],2,7,
{4}1-3[8:1],1^7[8:1]/4h[8:1],1-3[8:1]/6h[8:1],
1^7[8:1]/4h[8:1],1-3[8:1]/6h[8:1],
1^7[8:1]/4h[8:1],1-3[8:1]/6h[8:1],
1b-7[8:1]/4h[8:1],1^3[8:1]/6h[8:1],
1b-7[8:1]/4h[8:1],1^3[8:1]/6h[8:1],
1b-7[8:1]/4h[8:1],1/6h[8:1],52,{16}3>8[8:1],4,3,4,{4}3,
{24}7b,6,5,4,,,,,1b,2,3,4,,,,,5b,6,7,8,,,,,
,,1b,2,3,4,,,8b,7,6,5,,,1b,2,3,4,Cf,,,,,,
{16}1,8,1,8,1,8,1,8,{32}1b,2,3,4,5,6,7,8,
1bh[64:1],2h[64:1],3h[64:1],4h[64:1],5-2-5-8[8:5],6h[64:1],7h[64:1],8h[64:1],
{4}1h[2:1],,,,
{8}4,3,2,1,8h[4:1],4,5,6,
{4}7h[4:1],2h[4:1],5h[4:1],4h[4:1],
6h[4:1],C,{8}8,8,1,1,2,2,3,3,4,4,5,5,
6x,5,6-2[8:1],,6b/3,,3,,71,
8,7<3[8:1]/1,,1/7x,,,,
28,1,2>6[8:1]/8,,2b,,7,3,
7-5[8:1],,7x,,{16}3,4,3,4,3,4,3,4,
{8}2bh[4:15],,B3,B4,C,,B4,B3,
B2,,B7,B8,,B6,B1,,
Ch[8:1],,,B3,B2,,B7,B6,
C,,B1,B3,,E4,B6,,
{16}2,7,2,7,2,7,2,7,2,7,2,7,2,7,2,7,
1,8,1,8,1,8,1,8,1,8,1,8,1,8,1,8,
{4}1,7`B7,3`B3,6`B6,2`B2,5`B5,1b`B1f,,
{2}4>5[8:13],6h[4:1],7h[4:1],
{4}1,8<2[2:3],{2}4h[4:1],
3h[4:1],1h[4:1],
{4}8,8<1[8:13],
3,4,5,7,
8,7,6,5,
{8}2-5[8:1],5,2,7-4[8:1],4,7,1v6b[8:1],5,
1,8v3b[8:1],4,8,2,5,2,5,
{16}3,4,2,4,3,4,2,4,3,4,2,4,3s7<6z2b[4:3],4,2,4,
{1}3b,
{16}6,5,7,5,6,5,7,5,6,5,7,5,6,5,7,5,
{8}6h[8:1],3h[8:1],5h[8:1],2h[8:1],6h[8:1],1h[8:1],7h[8:1],3h[8:1],
{16}1,2,1,3,1,2,1,3,1,2,1,3,1-7-2-6-3-5b[4:3],2,1,3,
{1}1b,
{8}7-4[8:1],,7,2-5[8:1],,2,8v3b[8:1],,
8,1v6b[8:1],,1,5,4,5,4,
8-5[8:1],5,8,1-4[8:1],4,1,8v5b[8:1],5,
8,1v4b[8:1],4,1,7,2,7,2,
{16}8h[8:1],,,{32}2b,3,{16}4,,1h[8:1],,,{32}6b,5,{16}4,,7h[8:1],,,{32}3b,4,
{16}5,,2h[8:1],,,{32}5b,4,{16}3,,
{16}6,5,6,5,6,5,6,5,
{3}6`E7/B7/B8/E1/E5/B4/B3/E3,B2/E2,B7/B8,
{4},{12}B2,B3,B4,{4}B5,B6/B7,
C,{8}B3,B4,,,{4}B7/B6/E7,
,{24}B6,B5,,,,,{4},,
{8}3,,,7,,,2,,{4},
8,1,{8}6<5[4:3],5,
{8}6,,,C,,,{4}3,3h[4:1],
8,7,6,
{2}4>5[8:16],1h[4:1],3h[4:1],4h[4:1],
5>5[8:16],6h[4:1],7h[4:1],1h[4:1],
{4}5>5[8:16],8,7,6,1,2,3,4,
5>5[1:1],1,2,3,
4,1s5b[8:2],,,
{8}54,4,3-5[8:1]/6,,3-8[8:1]/7,,3,,
54,5,5/1-6[8:1],,1-3[8:1]/4,,1,,
5,5,6-1[8:1]/3,,6-4[8:1]/2,,6x,6x,
1,2h[8:1],Ch[8:1],,1-5[8:1],5,1,,
43,6,43,2,54,8,54,1,
{16}3,4,3,4,3,4,3,4,{32}3b,2,1,8,7,6,5,4,3qq7b[8:6]*pp7b[8:6],2,1,8,7,6,5,4,{1}3b,
{4}4b-1[8:1]/5b-8[8:1],4b/5b,2b-7[8:1]/6b-3[8:1],2b/6b,
{8}8x,8,8-3[8:1]*^3[8:1]/4,,8-5[8:1]*^5[8:1],,8,,
1,1,1-6[8:1]*^6[8:1]/5,,1-4[8:1]*^4[8:1],,1,,
8,8,8w4[8:1]/1,,8,,1-5[8:1],7-3[8:1],1,
7,,2,,{16}7,8,7b,8,7,,
{8}4x,4,4-7[8:1]*-1[8:1]/8,,4-8[8:1],,4,,
5x,5,5-8[8:1]*-2[8:1]/1,,5-1[8:1],,5,,
{8}3,24,,6,57,,12,83,
,78,16,,8z4[8:1]/1s5[8:1],81,8b/1b,,
2,2,2-5[8:1]*-7[8:1],,2w6[8:1],,2,,
7,7,7-4[8:1]*-2[8:1],,7w3[8:1],,7,,
6,5,6-4[8:1],,6^1^6[8:2]/2,,6b,3b,3b,,4b/5b,,{16}2b,1,2,1,{8}2,,
5x,5,5-2b[8:1]*-8b[8:1]/1,,5w1[8:1]*-1[8:1],,5,,
4x,4,4-1b[8:1]*-7b[8:1]/8,,4w8[8:1]*-8[8:1],,4,,
{16}2b,1,2,,38,,2b,1,2,,38,,2b,1,2,,38,,
2b,1,2,,{8}38,1-5[8:1]/2-6[8:1],12,12,,
3,3,5,5,1,1,7,7,
{4}1h[4:1],2,18,4h[4:1],
5,3h[4:2],B6,{8}8,7,
6,5,1,2,3,4,5<4[4:2],,
{2}45,{4},5-8>2[4:2]/7-3[4:2],
57,,,C,{8}43,52,
,65,47,,34,52,
1/8h[8:1],,1h[8:1]/8,,8b-5[8:1]/1b-4[8:1],63,8b/1b,,
36,36,3-5b[8:1]/6,,3-8b[8:1]*-1b[8:1]/7,,3,,
54,54,5/1-3b[8:1],,1-6b[8:1]*-7b[8:1]/4,,1,,
45,54,6-4b[8:1]/3,,6/2,,2-5[8:1],6-1[8:1],
2b,6b-3b[8:1],,6b,{32}1x,8x,7x,6,5,4,3,2,{4}1b,
{8}6x/4x,64,6-8b[8:1]/4,46,6/4^1b[8:1],,4,,
37,37,3-1b[8:1]/7,37,3/7-4b[8:1],,7,,
2b,{32}2b,3,4,,{8},1b,{32}1b,2,3,,{8},8b,{32}8b,1,2,,
{8},7b,{32}7b,8,1,,{8},{32}6b,5x,4x,,1b,2x,3x,,{4},
{16}2b,4,3,4,3,4,2b,4,3,4,3,4,1b,4,3,4,
3,4,1b,4,3,4,3,4,{16}
{32}1b,2,3,4,5,6,7,8,
1bw5b[8:1]*s5b[8:1],2h[64:1],3h[64:1],4h[64:1],5h[64:1],6h[64:1],7h[64:1],8h[64:1],
{16}1b,Ch[16:1],
