&title=夜もすがら君想ふ (feat. 望月穂波)
&artist=望月穂波
&first=0
&des=B(@A@)D
&clock_count=4
&lv_5=13
&inote_5=(148){1},
{16},,,,,,,,4,5,4,5,3-6[8:1]/6,,,,
7b,,,,8p3[32:5],,3,,8,2,,1,1-5[8:1],,5,,
1,,6,,4p5[16:3],,7,,8h[16:3],,,,,4,6,,
2b<7[8:1]/7b,,,,6,,5,,4,4>6[16:3],,1,,,5-1[8:1],,
,4,5,,3,3,8h[8:1],,2,,3v1[8:1]/7v5[8:1],,2/6,,3b/7b,,
{8},,3/7,,6,6h[8:1],1,,
4h[4:1],,2,,5,5h[8:1],8,,
3q5[4:1],,5<3[4:1],,8,,7,7h[4:1],
,5,4/6,3,2/7,1p4[16:3],8,7,
,,3/6,,2,2h[8:1],4,,
6h[4:1],,7,,4,4h[8:1],1-5[8:1],,
5pp5[32:5]*qq5[32:5],,,,2/8,7>3[32:5],6,5h[4:1],
{16},,4-8[8:1],,6,,4,,7,7,1,,2,8,3,7,
{8}4/6<1[8:1],,2,,3>8[8:1],3,5,,
6<1[8:1],,4,,3>8[8:1],3,5,,
7qq8[4:1],,8>7[4:1],,2,,1,1h[4:1],
,8,7/2,6,5/3,4q8[32:5],3,2,
,,2/7,,8<5[8:1],1,2/8,,
1>4[8:1],8,1/7,,8-4[8:1],1,2/8,,
3qq8[8:3],3,7<4[8:1],,7,,1/5,1b/5b,
{16},,3,4,2,,6,5,7,,1-5[8:1]/8-4[8:1],,2/7,,1b/8b,,
{8},6-1[8:1],3-5[32:3],6,3,8>4[4:1],8,4<8[4:1],
,8>5[16:3]*q5[16:3],,,,6>3[8:1],7,8h[4:1],
,1h[8:1],2h[8:1],3h[8:1],4h[8:1],5>1[4:1],5,1<5[4:1],
,5>8[16:3]*p8[16:3],,,,7>2[8:1],6,5h[8:3],
,3,3,3h[8:3],2,1,8,7h[8:3],
,5,4,3,2,1-5[8:1],2/8,1,
{16}7,,4/6,,4/6,,2/4,,2/8,,1v4[8:1],8,2,7,1,,
{8},3/5,2h[4:1]/6h[4:1],,,1-5[8:1],5-1[8:1],1b,
,,4qq5[4:1]/6pp5[4:1],,4/6,,,3V52[4:1],
,5,6,7-3[8:1],1,7,2>8[32:7],8,
2,,5w1[8:1],,5,,4/6,2h[8:1]/8h[8:1],
,7-4[8:1],3v8[8:1],7,3,5v2[8:1]*-8[8:1],4/6,5,
,3qq5[4:1]/6pp4[4:1],3/6,,,,1/8,7V51[4:1],
,1,2,3V15[4:1],4,5,6,7,
8w4[8:1],,8,,2-7[8:1],6-3[8:1],2,6,
,1/5,3h[4:1]/7h[4:1],,,8-4[8:1],4-8[8:1],8b,
,,4qq3[32:5]*pp5[32:5],,4,,4,6q4[4:1],
,4q2[4:1],3,2q8[4:1],,8q6[4:1],1,2,
3-7[8:1],,1w5[8:1],,1,,4/6,2h[8:1]/8h[8:1],
,1-5[8:1],7-3[8:1],1,7,8-3[8:1]*-5[8:1],1/7,8,
,4,4V25[4:1],,5V38[4:1],,7,7h[4:1],
,1p5[32:5],2,3h[4:1],,4,5,6pp4[8:3],
3qq5[4:1],6,3,,,,3/6,3b/6b,
,2>5[8:1],1,8,7>2[8:1],6,5,4,
3-8[8:1],4,5,,6-1[8:1],5,4,,
3>8[8:1],4,5,,6<1[8:1],5,4w8[8:1],,
4,,7/1,6,4/5,3,1/2,3,
{16}4b/6b,,8,1,8,,3b/5b,,1,8,1,,7h[4:1]/2bV41[8:3],,,,
{8},7,7,7,7/8,7/8,5/6,3/4,
{16}2,1,2,,4/2,,2,1,2-6[8:1],1,2,,2b/8b,,,,
{8}7-4[8:1],,1,,2-5[8:1],2,8,,
7<4[8:1],7,8,1,2<7[8:1],2,3,4,
{16}5,,2/8,,2/8,,5,5,1,7,2,6,3,5,4-8[8:1],,
,,7,,6,6,5,7h[8:1],,1,,3,4>1[8:1],,5,,
{8}4b/6b,,5/7,,3,3,2/4,,
8,7,1/6,,1,2,3/8,7pp4[16:5],
,3,3h[4:1],,,5,6,3pp8[16:5],
{16},,7,,7h[4:1],,,,,,1,1,7,2,6,3,
{8}5<3[2:1],,4,,4,,4,4h[4:1],
,2,1/3,2/8,1/7,6-2[8:1],4/5,6,
,3-7[8:1],2/4,3,,8-4[8:1],1/7,8,
,1-5[8:1],2/8,1/7h[2:1],,4,3,2h[8:5],
,3,3,3,3,4-8[8:1],5,4b/6h[4:1],
,1-5[8:1],2,1b/3h[4:1],,6-2[8:1],7,6b/8h[4:1],
,3<3[4:1],7>4[32:5]*>5[16:3]*>6[32:7]*>7[4:1],3b,,,,,
3/7,8-4[8:1],4-8[8:1],8b,
,,5pp4[4:1]/3qq4[4:1],,5/3,,,6V47[4:1],
,4,3,2-6[8:1],8,2,7<1[32:7],1,
7,,4w8[8:1],,4,,5/3,7h[8:1]/1h[8:1],
,2-7[8:1],6-3[8:1],2,6,1<6[8:1]*>4[8:1],8/2,1,
,5,5V74[4:1],,4V61[4:1],3,2,2h[4:1],
,8q4[32:5],7,8/6h[4:1],,5,4,3qq5[8:3],
6pp4[4:1],3,6,,,,6/3,6b/3b,
,7>2[8:1],6,5,4<7[8:1],3,2,1,
8>3[8:1],5,6,7,8<5[8:1],4,3,2,
1>4[8:1],6,7,8,1<6[8:1],4,3,2,
1-5[8:1],5,1w5[8:1],,1,,4/6,2-6[8:1]/8h[4:1],
,2,1,8,7-3[8:1],8,1,2,
4<7[8:1],1,2,3,4>1[8:1],8,7,6,
5<8[8:1],2,3,4,5>2[8:1],8,7,6,
5pp5[4:1],5,5qq5[4:1],,,,1,1h[8:5],
,5,6,7,8w4[8:1],,8,,
{16}2b/6b,,,,7V53[32:5],,3,,7,2,,1,1-5[8:1],,5,,
1,,6V84[4:1],,8,,4-2[32:3],,1h[16:3],,,,,5,3,,
2b/7b>2[8:1],,,,3,,4,,5,5<3[16:3],,8,,,4-8[8:1],,
,5,4,,6,6,1h[8:1],,7,,2-5[8:1]/6-1[8:1],,3/7,,2b/6b,,
{8},4>1[8:1]/8<5[8:1],4b/8b,,,2pp1[4:1]/6pp5[4:1],4/8,2b/6b,
{1},,
E
