&title=♥×♥ (ANOTHER ver.)
&artist=曲師
&first=0
&des=(♥△♥)!
&lv_5=14+
&inote_5=(74)
{2},
{16}2-6[32:3]/5h[16:1],,,7,2,,,8,
{8}8-5[128:11],36,8,3/4,
{16}6-3[32:3]/4,4,7,3,6,,,1,
{32}2h[32:2],,5,5,3,,
(78)
{32}7,8h[384:1],
,,28,,1h[384:1],1,1,1,
{32}2,,5h[32:4]/4,,,,2,,,,28,,26,,5h[16:1],,8,,
{32}1,1,7,6,,
(67)
{64}2,,4h[16:1],,,,5h[384:73],
(19)
{64},,{128},,{384},
(67)
{64}6,,5,,,6,,5,,7,,,{48}2,4,2,4,2,4,
{32}2h[32:5],,,,,{128}4V26[64:35],,,,,,,,,,,,,,,,8z4[64:35],,,,,,,,,,,7h[128:17],,,,,{32},,,,,,,{32},
(96)
{2},{64},,,,,,,,
(77)
{64}7b>2[128:83],6,5,4,3,2,,,{8},,,,,,,
(107)
{32}3b/5b,4h[32:5]/6,,,,,8h[32:4],,{32},,3,,{32}7,6,5,,
{32}3,,4,3,,6,,5,7,5,7,,{24}3/6h[24:1],,2,{24}5h[24:1],3h[24:1],8h[24:1],
{32}5,,,,{12}2h[48:1]/7,3h[48:1]/7,4h[48:1]/7,
{32}5h[48:1]/7,,4b,,7b,,7b,5,4,3,2h[32:8],,4,,
{32}6,7,8,1,,3,4,5,
{32}6b/2b,,4,5,4,5,4,,2,,{64}5h[16:1],,,,{32}3,2,1,,4,,2h[64:1]/5h[64:1],,2h[64:1]/5h[64:1],,2,8,7,6,
{32}3h[48:1]/5b,,2,,{32},5,4,,5,6,,5,4,,5,6,
{32},3,4,3,4,2h[32:4],,,,6,,57,,,4,,4,{32},,35,,{32}7,,7,,5,4,3,2,8h[32:1],,3,,{64}7h[384:1],6h[384:1],5h[384:1],4h[384:1],{32}1,,,26,,,,
(107)
{4}8bs4[16:7]*z4[16:7],,{16},,,{24},,,{48}35,,,46,,,,8,,
(107)
{32}1b,,6,,{64},,,,2,,5,,{32}2,5,1,6,
3,6,5,8h[32:7],,,,,,,
{32}5b,,8,7,6,5,4,,2,,{64}5,,,,5,,,,{32}4,,36,,,45,,,6,,4,,{48}3,,,3,{48}6h[48:1],,{48}7h[48:1],,8h[48:1],,1h[48:1],,{32}3,,,45,,,7,,
{32}5,,4,,3h[32:2]/5,,7,,
3,,,45,,2,,,
6h[32:2],,
{32}1,2,3,4,5,6,7,8,1,2,
35,,6,,
,43,,,6h[32:1],5,6,,
2h[32:1],4,2,,
6,,3h[64:1]/7h[64:1],,
{32}3h[64:1]/7h[64:1],,3,,
{32}5/8b,,,3/8b,,,5b/2,,,4b/1,,,6b/3,,,,84,5,6,7,8,
{32}1,2b/6,,4,,4,,{12}5h[24:1]/3,4h[24:1]/6,5h[24:1]/2,
{16}4h[24:1]/7,{12}8,8h[12:1],{48},{32}3,2,1h[32:4],,5,6,7h[32:2],,3,,6,5,6,,3,,43,,,2,,5,4,5,,3b,4,2,5,4,7,5,6,5,,3,4,3,,6,5,7,4,8,3,7,1,{64}7b,6,5,4,{32}3h[32:8],,,,,,,,
{4}5w1[20#96:1],,,,,
{32},,,,,
(161)
{16},,3h[32:1],,,4,,5,,6,,,5,,,,4,,,,5h[16:13],,,,,,,,,,,,,,,
{16}4,,,,,,5,,,6,,,,,,{16}3h[32:1],,,4,,5,,6,7h[48:1],,6,,5,,4,5,,,5,,,,,,7h[48:1],,6,,,,,
{16}7h[48:1],,{32}6,,,5,,,{16}4,4,5,3,,,4,,6,,5,,
{32}3h[32:1],,,,,,4,,2h[64:1],,3,,,5,,6,,,,,2h[64:1],,,,,,,{64},,
{64}1h[64:1],2,,,,,,,,,,,,,,,{16}3,,,,{64}4,,,,,,2h[64:1],3,,,,,{16},,,,,3,,,,,4,,,,,5
,,6,,,,
{16},,3h[32:1],,,4,,5,,6,,,5,,
{64}3h[32:1],{8},{64}4,,,,,5,,,,6,,,,
,,,3h[32:1],,,,,,,,,,,,,,,,,,,,4,,,,,,,,,,,,,5,,,,,,,,,,,,,,,6,,,,,,,,,,,,,,,,,,,5,,,,
,,,,
,,,,
,,,,
,,,,
,,,,
,,,{64}4h[64:79],,,,
,,,,
,,,,
,,,,,,
,,,,
,,,,
,5h[32:26],,,,,,,
{4},,,,,,{64}4,,,,
,,,,
,,,,
,,,
(186)
{64}4bz8[16:9],5pp2[16:40],3,6,2,17,,,{8},{4},,,,,,{8},8,,,,,,,,,
(172)
{64}2b/8b,7,3,6p4[16:33],4,5s1[16:9],,,{8},,,,,,,,,,,,,2h[8:1],,,2,2,2,{12}3,4,4,5,4,4,
(194)
{96}7b,,,,
,,,7b,
,,,,
,,,,
,7b,,,
,,,,
,,,,
,,,,
{64}7bz3[16:10]*qq8[16:25]/3b,6,2,5,1,4/8,,,
{8},{12},{24},,{8},,,,
,,,,
{16},,,,,,
{96}4,,,,,,,,3,,,,,,,,2,,,,,,,,
{96},,8/1,,
,,,,
,,,,
,,,,
7,,,,
,,,,,,,,
,,,,
,6,,,,
,,,
,,,,
,,,,,,,,
,,,,
,,,,5/4,,,,
,,,,
,,,,,,,,
,,,,
,,,,,,,,
,,,,
,3,,,{12},,,,
,,,,
,,,,
{24},
{32}2h[32:19]/5,,,,
,,,,
,,,,
,,,,
,,,
(91.5)
{16},,,,
,
{32}1h[32:9]/4<5[8:23],,,,
,,,,
,,,,
,,,,
,,,,
,,,,
,,,,
,,,,{16},,,,
,,,,
{16},,,,
,,,,
,,,,
,,,,
,,,,
,,,,
,,,
(160)
{48}7b/3h[384:1],,6,,5,,4,,3,
8h[384:1],2,,1,,8,,7,,
2h[384:1]/6h[8:2],,
,,,,
{16},,4,
{32}5,,,,
{12}2-6[8:1],4,4,2,7,{16}5,8,4,6,
2,4,8,,{48},{16}1-5[8:1],,78,{32},,
{16}1b,,{24}6,7,8,{16},5,4,,7,,{24}2,,5h[24:1],{16},5,4,,6-2[8:1],,8,1,6-8[8:1],,4,,6,
{16}2,2,6,3,5h[16:3],,,
{32}1b,62,73,84,{8}5h[16:5],
{16}8,,,2,2,{24},,{12}46,5,4>1[8:1]/6,{16}5,,{24},8,7,6,{16}5,,,{16}2h[16:1],4,4h[16:4],,8,,{16}2,,5,,
{24}
3b/7b,46,5h[24:2],,,,{16},3,6,4,5v2[8:1],,6-8[8:1],,5,,6,,
{16},1,1,2,8,,4V68[16:3],,1,,1,
{16},3h[8:1],,,,
{32}2b/6h[32:9],,,,1,2,3,4,
5,,7,8,1,2,3,,{12}8-6[8:1],5,5,8V24[16:3],4,4,{24}8,,5,,,,,7-5[8:1],,5,,4,,7,,3,,2h[12:1],,4h[24:5],,,,,
{32}8b,51,62,73,
{32}4h[16:4]/8,1,2,,
,,,,{16}6,,,{24}5-8[8:1],7,5,7,,,
{16}3h[8:1],,,
{16},,2h[8:1]/1,,{12}4V28[16:3],5,6,4-6[8:1],7,7,4,2,,
{32}7b/3,6,5,4,
3,2,1,8,
74,6,5,4,
3,2,1,8,
{16}5h[16:3]/7,,,6h[16:3],,,{24}8b,1,2,
3,4,5,
1,8,7,
6,5,4,
{16}13,,,8b/2b,,1,1,8,,,
{64}18,,,,,,87,,,,,,76,,,,,,,65,,,,,,,54,,,,,,,,43,,,,,,,,,32,,,,,,,,,,,,,,,81,,,,,,,,,,,,,,,,,,,,76,,,,
,,,,
,,,,
,,,
,,,,
,,,
4/5-1[64#64:52],,,,,,,,,,,,,,,,,,,,,,,,,,,,
{64},,,,,,,,,,,,5h[64:148],,,,,,,,,,,,,,,,,,,,,,,,,,,,,,,,,,,,,,,,,,,,,,,,,,,,
{4},,,,,,7>2[64:94],,,,,,{16},,,
(78)
{128}4v5[16:35],5v4[16:35],,
E
