&title=神威 (NAOKI × ZPP MIX)
&artist=NAOKI MAEDA
&first=-0.45
&lv_4=12+
&des_4=JH
&inote_4=
(210){4},,,,{1}5xh[4:7]/4x<2[8:11],
,4h[4:7]/6>8[8:11],
,5h[4:7]/2>8[8:11],
,2>5[2:1]/6<1[2:1],
{8}8,4,7,3,6,2,{4}1b/5b,
{8}2-4[8:1],{4},{8}5,,6h[4:1],,5h[4:1],
,4h[4:1],,3h[4:1],,7,{4}7,
{8}7-5[8:1],{4},{8}4,,3h[4:1],,4h[4:1],
,5h[4:1],,6h[4:1],,2x,{4}2x/6x,
{8}1-4[8:1],{4},{8}5,,6h[4:1],,5h[4:1],
,4h[4:1],,3h[4:1],,7,{4}7,
{8}8-5[8:1],{4},{8}4,,3h[4:1],,4h[4:1],
,5h[4:1],,6h[4:1],,2x,{4}2x/6x,
8/3,3h[2:1],E7,5h[2:1],
C,4h[2:1],E3,7h[2:1],
E1,2h[2:1],E3,8h[2:1],
C,1h[2:1],E7,7,
{8}4,{4},{8}5/3h[4:1],,4h[4:1],,6h[4:1],
,5h[4:1],,4,,3/6,{4}3/6,
{1}7xh[2:3]/2x-4-1-5-8-6[1:1],
{2},Cf,
{4}7b/3b-5[8:1],{8}6,6h[8:3],,5,{4}5qq1[2:1],
{2},{4}5x,3/7,
2/6-4[8:1],{8}3,3h[8:3],,4,{4}4V68[8:3],
{2},{4}4x,2/8,
7/1-4[8:1],{8}5,5h[8:3],,3,{4}3qq8[2:1],
{2},{4}5x,7,
2/8-5[8:1],{8}4,4h[8:3],,6,{4}6V82[8:3],
{2},{8}3,4,5,6,
{4}7b/4b-1[8:1],{8}8,8h[8:3],,2,{4}2-6-3-5[2:1],
{2},{4}7x,6,
3/5-8[8:1],{8}1,1h[8:3],,7,{4}7-4-6-1[2:1],
{2},{4}2x,3,
8/4-8[8:1],{8}6,6h[8:3],,7,{4}7>5[2:1],
{2},{4}7x,6,
3/5-1[8:1],{8}4,4h[8:3],,2,{4}2<4[2:1],
{2},{8}2,1,{4}8w4[8:1],
{2}8x,4h[4:1]/B7/E7,
2h[4:1]/B5/E5,3h[4:1]/B7/E8,
1h[4:1]/B5/E5,2h[4:1]/B6/E6,
3h[4:1]/E8/B8,2h[4:1]/E6/B5,
{4}5/1>4[8:3],6,{8},7,{4}7,
4/8<5[8:3],3,{8},2,{4}2,
5/1s5[8:3],6,{8},7,{4}7,
{1}4xqq8[4:3]/8xqq4[4:3],
,{16}3x,
{8},{16}4x,{8},5x,{16},6x,{8},5x,4x,
3x/6h[4:1],3,{4}3,{8}6x/3h[4:1],6,{4}6,
{8}4/5,4/5,4/5,4/5,4h[16:1]/5h[16:1],4h[16:1]/5h[16:1],{4}4b/5b,
3x-8[8:1],{8}4,4-7[8:1],,1,{4}1h[4:1],
6-1[8:1],{8}5,5-2[8:1],,8,{4}8h[4:1],
1>4[8:1],{8}5,5<8[8:1],,2,{4}2h[4:1],
{8}8,7,6,5,4,3,{4}2b-5[8:1]/8bv5[8:1],
,{8}6x,6<1[8:1],,3,{4}3h[4:1],
4<7[8:1],{8}3,3>8[8:1],,6,{4}6h[4:1],
5-2[8:1],{8}8,8-4[8:1],,1,{4}1h[4:1],
{8}5,6,7,8,1,2,{4}3b/5b,
4x/6x,{8}3,5,E4,5,4,5,
B2,5,4,5,B3,5,{4}4xh[4:1],
{8}E8,4,5,4,B7,4,5,4,
B6,4,5,4,B7,4,{4}5xh[4:1],
3>8[8:1],{8}6,6-2[8:1],,4,{4}4h[4:1],
7<4[8:1],{8}2,2-6[8:1],,8,{4}8h[4:1],
{8}1,1,8,8,2,2,7,7,
{16}3,6,3,6,4z8b[4:1],5,4,5,{2}4,
{4}6bxh[8:3],{8}8,1xh[8:11],,6,{4}5xV37[8:3],
{2},8x-5[8:1],
{4}3xh[8:3],{8}1,8xh[8:7],,3,{4}4xq5[8:3],
{2},8b,
{4}4/3xh[8:3],{8}1,8xh[8:11],,3,{4}4x-6p2[8:3],
{2},1x>4[8:1],
{4}6xh[8:3],{8}8,1xh[8:7],,6,{4}5xpp4[8:3],
{2},1w5[8:1],
{8}3xh[4:1]/7xh[4:1],{4},{8}E3/B2/E7/B6,{4},{8}1/5,1/5,
1xh[4:1]/5xh[4:1],{4},{8}E3/B3/B7/E7,{4},{8}2/8,2/8,
2xh[4:1]/8xh[4:1],{4},{8}E3/B2/B8/E8,{4},{8}4/6,4/6,
4xh[4:1]/6xh[4:1],{4},{8}B4/E4/B6/E7,{4},8/2<3[4:7],
{1}2b,
,{8}8,
7,6,5,4,3,2,1,
{16}8,7,6,5,4,3,2,1,8x,7x,6x,5x,4x,3x,2x,1x,
{4}8x<5[8:1],{8}1,1h[8:3],,4,{4}4<7[8:1],
4x>1[8:1],4x,8-3[8:1]*-4[8:1],8,
1x>4[8:1],{8}8,8h[8:3],,5,{4}5>2[8:1],
5x<8[8:1],5x,1-6[8:1]*-5[8:1],1,
4x-8[8:1],{8}5,5h[8:3],,7,{4}7>2[8:1],
7x-3[8:1],7x,1-4[8:1]*-6[8:1],1,
5x-1[8:1],{8}4,4h[8:3],,2,{4}2<7[8:1],
2x-6[8:1],2x,8-5[8:1]*-3[8:1],8b,
2/6xh[8:1],{8}4,3/7h[8:1],{4}3<5[8:1],8h[8:1],
{8},5/1h[8:1],,7,6/2h[8:1],6<8[8:1],,3h[8:1],
{4},8/4h[8:1],{8}2,1/5h[8:1],{4}1>3[8:1],
{8}6h[8:1],{4},{8}3/7h[8:1],,4,{4}6x/5x,
{8}7,6,5,4,6,5,4,3,
5,4,3,2,1x/8x,2x/7x,3x/6x,4x/5x,
{16}3bx,4,3,4,{8}3,{16}6bx,5,6,5,{8}6,{16}2bx,4,2,4,
{8}2,{16}7bx,5,7,5,{8}7,{16}1bx,8,1,8,{4}1w5[16:1],
{64}1b>8b[4:7],Cf,
E
&lv_5=14
&des_5=JH
&inote_5=
(210){4},,,,{8}3/5h[8:13],
{4},{8}4,,6,,7,
,8,,1,,2h[8:1],{4},{8}6/4h[8:11],
{4},{8}5,,3,,2,
,1,,8h[4:1],,3h[8:1],{4},{8}3/5h[8:9],
{4},{8}4,,6,,7,
,8h[4:1],,6h[4:1],,2h[8:1],7,7,
1,1,8,8,2/7,2,3/6,6,
{16}4,5,4,5,4,5,4,5,4-8[8:1],5,4,5,{32}4bx,Cf,{16},,,{4}6h[4:1],
{8}8,7/1h[4:1],,8,2h[8:3],1-6[8:1],
,1x-4[8:1],,1x<6[8:1],,1x,{4}3x,
4/3h[4:1],{8}1,2/8h[4:1],,1,7h[8:3],8>3[8:1],
,8x<5[8:1],,8x-4[8:1],,8x,{4}6x,
5/7h[4:1],{8}1,8/2h[4:1],,1,3h[8:3],2<7[8:1],
,2x>5[8:1],,2x,,6x,{4}8x/5x,
4/2h[4:1],{8}8,1/7h[4:1],,8,6h[8:3],7>2[8:1],
,7x<4[8:1],,7x,,3x,{4}4x/1x-5[8:1],
6h[4:1],4-1[8:1],5xh[4:1],8-3[8:1],
7xh[4:1],4-8[8:1],6xh[4:1],1-6[8:1],
8xh[4:1],5-2[8:1],7xh[4:1],1-5[8:1],
6xh[4:1],4-8[8:1],7xh[4:1],1,
3xh[8:1]/5h[8:1],2xh[8:1]/6h[8:1],{8}1/7,6,8h[8:3],5<8[8:1],
,5x>2[8:1],,5x,,8x,{4}1x/6x<3>6[4:5],
{1}6/Ch[1:1],
{2},4-1[8:1]/5-8[8:1],
{4}6bx/2bx-5[8:1],{8}7,7h[4:1],,6,5h[4:1],6,
8h[4:1],4,{4}3-6[8:1],3x/7-4[8:1],7x/8,
5x/1x-5[8:1],{8}7,7h[4:1],,4,{4}2-5[8:1]/6-1[8:1],
2/6,4/8V64[4:1],4<1[4:1],1,
2x-7[8:1],{8}8,8h[8:3],,6,{4}4-1[8:1],
4-7[8:1],4,{8}2/8,3,4/5,6,
{4}8/7-2[8:1],{8}1,1h[8:3],,3,{4}5<8[8:1],
5>2[8:1],5,{16}7,1,{8}7,{4}2/6,
3x/7x-4[8:1],{8}2,2h[4:1],,3,4h[4:1],3,
1h[4:1],5,{4}6-3[8:1],6x/2-5[8:1],2x/1,
4x/8x-4[8:1],{8}2,2h[4:1],,5,{4}7-4[8:1]/3-8[8:1],
7/3,5/1V35[4:1],5>8[4:1],8,
7x-2[8:1],{8}1,1h[4:1],,3,{4}5-8[8:1],
5-2[8:1],5,{8}7/1,6,5/4,3,
{4}1/2-7[8:1],{8}8,8h[4:1],,6,{4}4h[8:3],
{16}3,2,1,8,3/7,2,1,8,{24}7x,6x,5x,4x,3x,2x,{4}7bx/1bx-5[8:1],
1x/6x,8-4[8:1],3x/8x,2-6[8:1],
2x/8x,7-3[8:1],1x/7x,2-4[8:1]/8-6[8:1],
2x/8x,7-5[8:1]/1-3[8:1],1x/7x,4-2[8:1]/8-4[8:1],
4x/8x,1-5[8:1]/5-7[8:1],1x/5x,4/8,
6/3x-8[8:1],3/7x-4[8:1],{8}1/7,1h[4:1],5,5h[4:1],
2,3,4,3/5,4,5,{4}4x/6x,
7-2[8:1],7/3-6[8:1],{8}3/8,8h[4:1],4,4h[4:1],
7,6,5/2,3,4/8,3/7,2b-7[8:1]/6b-3[8:1],2b/6b,
{1},{16}E8/D8/A8,
{8},{16}A2/E2/D2,{8},B7/A7,{16},E3/B2,{8},B6,E4,
5x,5x,5x,5x,1/5,1/5,1/5,5/1,
{16}1,2,3,4,1,8,7,6,{32}1bx-5b[16:1],2,3,4,1bx,8,7,6,{64}1bx,B1,Cf,B5,{16},,,{8}7xh[4:1],
5,3,8xh[4:1],5-8b[8:1],3h[8:1],{4}5x,
{8}2xh[4:1],4,6,1xh[4:1],4-1b[8:1],6h[8:1],{4}4x,
{8}7xh[4:1],5,3,8xh[4:1],5-1b[8:1],3,{4}5x,
{8}4x>1[8:1],5,6,7x,8w4[8:1],1,{4}8b,
,{8}6,1xh[4:1],4-1[8:1]*-8b[8:1],5,{4}4x,
{8}7xh[4:1],4,3,8xh[4:1],5-8[8:1]*-1b[8:1],4,{4}5x,
{8}2xh[4:1],4,6,1xh[4:1],5-2b[8:1]*-8[8:1],7,{4}5x,
{8}1x>4[8:1],8,7,6x,5w1[8:1],4,{4}5b,
3x/7x,{8}1,8,{4}1x/7x<4[8:1],{8}8,1,
{4}2/8x<5[8:1],{8}1,2,{4}3/1x<6[8:1],{8}4,3,
{4}8x/2x>5[8:1],{8}1,8,{4}7/1x>4[8:1],{8}8,7,
{4}6/8x>3[8:1],{8}5,6,{4}7x-4[8:1]/4x-1[8:1],4/7,
{8}2x>5[8:1],1,8/2,7>2[8:1],6,5/7,{4}4bh[4:1],
{8}5x>2[8:1],6,7/5,8<5[8:1],1,2/8,{4}3bh[4:1],
{8}4x,4,3/5,3/5,4/7,4/7,1/5,1/5,
{16}2,6,3,7,2,6,4,8,2-6b[16:1],6,4,8,{4}2b,
{8}7x<4[8:1],7,8,1-6-3[4:1],1,5,{4}5h[8:3],
{8}2x-6[8:1],2,{4}7h[8:3],{8}5,4,3/7,2/6,
5/1x>4[8:1],1,8,7-4-1[4:1],7,3,{4}3h[8:3],
{8}8x-4[8:1],8,{4}5h[4:1],{16}3x,2,1,8,7/3,6/2,{8}5/1,
2x>5[8:1],2,1,8-3-6[4:1],8,4,{4}4h[8:3],
{8}7x-3[8:1],7,{4}2h[4:1],{8}4,5,2/6,3/7,
4/8x-4[8:1],8,1,2-5-8[4:1],2,6,{4}6h[8:3],
{8}1x-5[8:1],1,{4}4h[4:1],{16}6x,7,8,1,2/6,3/7,4/8,5/1,
{8}2bh[4:1]/6bh[4:1],{4},{8}4b/8b,{4},{8}2/8,4/6,
3bh[4:1]/7bh[4:1],{4},{8}1b/5b,{4},{8}3/5,1/7,
2bh[4:1]/B5/E5,{4},{8}6b/B1/E1f,{4},{8}6/4,8/2,
7bh[4:1]/B4/E5,{4},{8}3b/E1f/B8,{4},{12}8/4,3/7,2/6,
{1}1z5s1[2:3]/5<4[2:3],
,{8}4,
4,6,6,2,2,8,8,
{16}1,8,1,8,2,7,2,7,{32}3,4,5,6,7,8,1,2,3qq4[16:5],4,5,6,7,8,1,2,
{4}3bx/5bx,{8}6,6,7-5[8:1],5-1[8:1],{4}7/4V26[4:1],
4,7h[4:1],{16}5,4,3,2,1/5qq6[16:5],6,7,8,
{4}5/1,{8}7,7,8-4[8:1],4-6[8:1],{4}8/3V15[4:1],
3,8h[32:11],{32}5x,6,{16}7,{32}1,2,3,4,{4}5x/6xpp5[16:5],
6/4,{8}3,3,2-4[8:1],4-8[8:1],{4}2/5V73[4:1],
5,2h[4:1],{16}4,5,6,7,8/4pp3[16:5],3,2,1,
{4}4/8,{8}2,2,1-5[8:1],5-3[8:1],{4}1/6V84[4:1],
6,1h[4:1],{16}4x,5,6,7,{32}8/2,3,4,5,6,7,8,1,
{8}2x/5x,{16}3,4,{8}3,2/7x<5[8:1],8,1,2x-6-4[4:1],3,
{4}2/4x>8[32:5],7h[8:3],{16}6x,5x,4x,3x,{4}2b/6,
{8}7x/4x,{16}6,5,{8}6,7/2x>4[8:1],1,8,7x-3-5[4:1],6,
{4}7/5x<1[32:5],2h[8:3],{16}3x-1[8:1],4x,5x,6x,{4}7b/3,
{16}2x,5,2,5,{8}2,{16}8x,4,8,4,{8}8,5/6,5/6,
{16}7x,4,7,4,{8}7,{16}1x,5,1,5,{8}1,3/4,3/4,
{16}2x,5,2,5,3,5,3x,5,4,5,4,5,6x,5,6,5,
7,5,8x,5,1,5,2,5,{32}3bx,2x,1x,8x,7x,6x,5x,4x,{4}3x-7b[16:1],
{64}8bh[1:2]/3bs7>1z5[4:7],B3,Cf,B7,
E
