&title=テトリス
&artist=柊マグネタイト
&first=0
&des=Tzddxg
&des_5=Tzddxg
&lv_5=14
&inote_5=(170){4},,,,4h[8:1]/6h[8:1],3h[8:1]/5h[8:1],4h[8:1]/6h[8:1],3h[8:1]/5h[8:1],1h[8:1]/7h[8:1],2h[8:1]/8h[8:1],1h[8:1]/7h[8:1],2h[8:1]/8h[8:1],5h[8:1]/7h[8:1],4h[8:1]/6h[8:1],3h[8:1]/5h[8:1],2h[8:1]/4h[8:1],1-3[8:1]/3,1/7-5[8:1],7/8-4[8:1],8,1h[8:1]/7h[8:1],2h[8:1]/8h[8:1],1h[8:1]/7h[8:1],2h[8:1]/8h[8:1],4h[8:1]/6h[8:1],3h[8:1]/5h[8:1],4h[8:1]/6h[8:1],3h[8:1]/5h[8:1],2h[8:1]/4h[8:1],3h[8:1]/5h[8:1],4h[8:1]/6h[8:1],5h[8:1]/7h[8:1],6/8-6[8:1],2-4[8:1]/8,1-5[8:1]/2,1,
{8}28,17,28,{16}7,5,6,,7,5,{8}6,7,17,28,17,{16}2,4,3,,2,4,{8}3,2,28,17,28,{16}7,5,6,,2,4,{8}3,1,2-7[8:1]/8-3[8:1],,2-4[8:1]/8-6[8:1],,2-5[8:1]/8-5[8:1],,28,,46,35,46,{16}2,1,2,,7,8,{8}7,6,35,46,35,{16}7,8,7,,2,1,{8}2,3,46,35,46,{16}3,1,2,,6,8,{8}7,6,5,2/E6,3/E7,4/E8,E4/8,E3/7,E2/6,E1/5,
4q8[4:1],,1,2,3q7[4:1],1,8,,5hb[8:1],{16}8x,1x,2x/6hb[8:1],,1x,2x,3x/7hb[8:1],,2x,3x,4x/8hb[8:1],,3x,4x,{8}1p5[4:1]/5x,,4,3,2p6[4:1],4,5,,8hb[8:1],{16}5x,4x,3x/7hb[8:1],,4x,3x,2x/6hb[8:1],,3x,2x,1x/5hb[8:1],,2x,1x,{8}4b/8x,,,7-4[8:1],7,2-5[8:1],2,6-1[8:1],6,3-8[8:1],3,4-7[8:1],4,1-6[8:1],1,5-2[8:1],5,,,4,35,2,46,7,{16}2h[8:1]/8h[8:1],,,2h[8:1]/8h[8:1],,,37,,{8}46,8,35,2,{16}1h[8:1]/7h[8:1],,,1h[8:1]/7h[8:1],,,26,,{8}35,1,46,7,8p3[8:1]/2pp4[8:1],,,,7-2[8:1]/5q2[8:1],,,,C,,C,,C,,,,
1b/7b<4[8:1],{16},8,{8}7,1,2>5[8:1]/8,{16},1,{8}2,8,4/6<1[8:1],{16},5,{8}6,4,3>8[8:1]/5,{16},4,{8}3,5,4>8[4:1],,8<4[4:1],,4-2[8:1]-8[8:1],,8-6[8:1]-4[8:1],,4,,8,7,6,5,2,3,46,4/6-1[8:1],,46,3-8[8:1],,37,6,25,2-7[8:1]/5,,25,5-8[8:1],,25,3,4-6[8:1]-8[8:1],,8-2[8:1]-4[8:1],,4<8[4:1],,8>4[4:1],,4<8[4:1],,8,,4b,,,,
2>5[8:1]/8,{16},1,{8}2,8,1/7<4[8:1],{16},8,{8}7,1,3>8[8:1]/5,{16},4,{8}3,5,4/6<1[8:1],{16},5,{8}6,4,5<1[4:1],,1>5[4:1],,5-7[8:1]-1[8:1],,1-3[8:1]-5[8:1],,5,,1,2,3,4,7,6,35,3-8[8:1]/5,,35,6-1[8:1],,26,3,47,4/7-2[8:1],,47,4-1[8:1],,47,6,5-3[8:1]-1[8:1],,1-7[8:1]-5[8:1],,5>1[4:1],,1<5[4:1],,5>1[4:1],,1,,5b,,,,
{1}B1/B2/Ch[1:1],{8}8,7,6,{16}4,5,4,,6,5,{8}6,7,1,2,3,{16}5,4,5,,3,4,{8}3,2,{16}6,5,6,5,7b,,3,4,3,4,2b,,6,5,6,5,{8}7b,1,35,8,46,B1/B2/E2,35,B7/B8/E8,1,2,3,{16}5,4,5,,3,4,{8}3,2,8,7,6,{16}4,5,4,,6,5,{8}6,7,{16}3,4,3,4,2b,,6,5,6,5,7b,,3,4,3,4,{8}2b,,5-8[8:1]*qq5[8:1],,5,,,,
3p7[4:1],,4,5,6q2[4:1],3,4,5,4hb[8:1],{16}1x,8x,3hb[8:1]/7x,,8x,7x,2hb[8:1]/6x,,7x,6x,1hb[8:1]/5x,,6x,5x,{8}8q4[4:1]/4x,,5,6,7p3[4:1],8,1,,1hb[8:1],{16}4x,5x,2hb[8:1]/6x,,5x,6x,3hb[8:1]/7x,,6x,7x,4hb[8:1]/8x,,7x,8x,{8}1x/5b,,,2-5[8:1],2,7-4[8:1],7,3-8[8:1],3,6-1[8:1],6,5-2[8:1],5,8-3[8:1],8,4-7[8:1],4,,,5,46,7,35,2,{16}1h[8:1]/7h[8:1],,,1h[8:1]/7h[8:1],,,{8}26,35,1,46,7,{16}2h[8:1]/8h[8:1],,,2h[8:1]/8h[8:1],,,{8}37,46,8,35,2,1-7[8:1]/6-2[8:1],,,,8-5[8:1]/3-6[8:1],,,,C,,C,,C,,,,
2/5<8[8:1],,{16}2-6[8:1],3,{8}4,2>5[8:1],,{16}7-3[8:1],8,{8}1,7<4[8:1],,{16}2-5[8:1],1,{8}8,2<7[8:1],,{16}6,5,{8}4,{16}1x/5x,6x,7x,8x,1x/5,2x,3x,4x,1/5x,6x,7x,8x,1x/5,2x,3x,4x,{8}1-7[8:1]/5x-3[8:1],,1-3[8:1]/5-7[8:1],,15,,{16}8x,7x,6x,5x,{8}1/4x,1-5[8:1],,18,7-2[8:1],,{16}2,3,4,5,{8}68,8-4[8:1],,18,2-7[8:1],,{16}7,6,5,4,1x,2x,3x,4x,1b/5x,6x,7x,8x,1x/5b,2x,3x,4x,1b/5x,6x,7x,8x,{8}1x-4[8:1]/5b-8[8:1],,1-6[8:1]/5-2[8:1],,15,,,,
4>1[8:1]/7,,{16}7-3[8:1],6,{8}5,7<4[8:1],,{16}2-6[8:1],1,{8}8,2>5[8:1],,{16}7-4[8:1],8,{8}1,7>2[8:1],,{16}3,4,{8}5,{16}4x/8x,3x,2x,1x,4x/8x,7x,6x,5x,4x/8x,3x,2x,1x,4x/8x,7x,6x,5x,{8}4x-6[8:1]/8-2[8:1],,4-2[8:1]/8-6[8:1],,48,,{16}1x,2x,3x,4x,{8}5x/8,8-4[8:1],,18,2-7[8:1],,{16}7,6,5,4,{8}13,1-5[8:1],,18,7-2[8:1],,{16}2,3,4,5,8x,7x,6x,5x,4x/8b,3x,2x,1x,4b/8x,7x,6x,5x,4x/8b,3x,2x,1x,{8}4b-7[8:1]/8x-3[8:1],,48,,{32}1,2,3,4,5,6,7,8,1,2,3,4,5,6,7,8,
{8}1,,{16}1-5[8:1]/7,26,{8}35,1/7-2[8:1],,{16}3-8[8:1]/7,4,{8}5,36,,{16}4-1[8:1]/6-1[8:1],37,{8}28,46,,{16}28,37,{8}4/6h[8:1],{16}1,8,7,6,15,48,37,26,15,8,7,6,15,48,37,26,{8}1-4[8:1]/5-8[8:1],,1-6[8:1]/5-2[8:1],,15,,{16}8x,7x,6x,5x,{8}1/4x,1-5[8:1],,18,7-2[8:1],,{16}2,3,4,5,{8}68,8-4[8:1],,18,2-7[8:1],,{16}7,6,5,4,1x,8x,7x,6x,1x/5x,4x/8x,3x/7x,2x/6x,1x/5x,8x,7x,6x,1x/5x,4x/8x,3x/7x,2x/6x,{8}1x-6[8:1]/5x-2[8:1],,1-4[8:1]/5-8[8:1],,15,,,,
28,,{16}8-4[8:1]/2,37,{8}46,2-7[8:1]/8,,{16}2/6-1[8:1],5,{8}4,36,,{16}3-8[8:1]/5-8[8:1],26,{8}17,35,,{16}17,26,{8}3h[8:1]/5,{16}8,1,2,3,48,15,26,37,48,1,2,3,48,15,26,37,{8}4-1[8:1]/8-5[8:1],,4-7[8:1]/8-3[8:1],,48,,{16}1x,2x,3x,4x,{8}5x/8,8-4[8:1],,18,2-7[8:1],,{16}7,6,5,4,{8}13,1-5[8:1],,18,7-2[8:1],,{16}2,3,4,5,8x,1x,2x,3x,4x/8x,1x/5x,2x/6x,3x/7x,4x/8x,1x,2x,3x,4x/8x,1x/5x,2x/6x,3x/7x,{8}4x-7[8:1]/8x-3[8:1],,4-1[8:1]/8-5[8:1],,48,,,,
4/6-1[8:1],7,4-8[8:1]/6,3,4/7-4[8:1],6,1-5[8:1]/7,2,1/8-4[8:1],8,7-3[8:1],7,6-2[8:1],6,5-1[8:1],5,{16}7x,6x,5x,4x,3x/8x,1x,2x,3x,4x/8,7,6,5,14,2,3,4,{8}5v3[8:1]/8v2[8:1],,5>3[8:1]/8>2[8:1],,58,,E
