&title=Requiem for Fate
&artist=Roselia
&first=-0.03
&lv_5=13+
&des_5=小kai也算开
&inote_5=
(154){4},,,,,,,,{8}2bh[1:1]/B7,
{4},{8}B6,,B5,{4},{1}4<8[16:9],
{8}7bh[1:1]/B2,{4},{8}B3,,B4,{4},{1}5>1b[16:9],
{8}8/1,{16}2,4h[8:1],,3,{8}5h[8:1],B4,B3,B2,B1,
8/1,{16}7,5h[8:1],,6,{8}4h[8:1],B5,B6,B7,B8,
8/1,{16}3,4,,4,{8}5h[8:1],B5,B6,B7,B8,
8/1,{16}6,5,,5,{8}4h[8:1],3,{16}8,1,{4}2/7,
{16}2,3,4,5,8,7,6,5,8,1,2,3,{4}4xh[8:1]/5xh[8:1],
{16}7,6,5,4,1,2,3,4,1,8,7,6,{4}5xh[8:1]/4xh[8:1],
{16}3,2,1,8,5,6,7,8,5,4,3,2,{4}1xh[8:1]/8xh[8:1],
{16}2-6[8:1],7,3,6,2,5h[16:1],{8},{16}7-3[8:1],2,6,3,7,4h[16:1],{8},{16}1,
8,7,6,4/5,3,2,1,8/7,6,5,4,{4}3xh[8:1]/2xh[8:1],
{16}8,1,2,3,5/4,6,7,8,1/2,3,4,5,{4}6xh[8:1]/7xh[8:1],
{16}8,7,6,5,1,2,3,4,8,7,1,2,{4}3xh[8:1]/6xh[8:1],
{16}1-5[8:1],8,2,7,1,6h[16:1],{8},{16}8-4[8:1],1,7,2,8,3h[16:1],{8},{16}2-5[8:1],
1,,1,{4}2-8-6b[8:1],{8}2b/5h[4:1],{4},{8}5x,
{16}7-4[8:1],8,,8,{4}7-1-3b[8:1],{8}7b/4h[4:1],{4},{8}4x,
{16}2-4[8:1],1,,1,{4}2<6b[8:1],{8}2b/4h[4:1],{4},{8}4x,
{16}7-5[8:1],8,,8,{4}7>3b[8:1],{16}7b/5h[4:1],{4},{16}4,6,3,
{8}7-4[8:1],{16}1,1,,8,{8}8,{4}7x>3[8:1],7,
{8}2-5[8:1],{16}8,8,,1,{8}1,{4}2x<6[8:1],2,
{8}7-3[8:1],{16}3,3,,5,{8}5,{4}6x>2[8:1],6,
{8}8/1,{16}1,8,2,7,3,6,{4}4h[4:1],Cf,
{16}4,3,2,1,7,6,5,4,8,1,2,3,{8}4/6,6/4,
{16}7,6,5,4,1,2,3,4,1,8,7,6,{8}5/3,3/5,
{16}1,2,3,4,1,2,3,4,8,7,6,5,{8}4/8,8/4,
{16}3,1,3,1,2,8,2,8,1,7,1,7,{8}8/6,8/6,
7b,{16}1-5[8:1],8,1,8,{8}1,6b,{16}7,8,7-4[8:1],8,7,8,
{8}7,{16}2-5[8:1],1,2,1,{8}2,6b,{16}8,1,8-4[8:1],1,8,1,
{8}8,{16}2-6[8:1],1,3,1,{8}2,7b,{16}8,1,7-3[8:1],2,6,3,
{8}7,{16}2-5[8:1],1,2,1,{8}2,{4}6bh[8:1],{16}1,8,1,8,
{4}7bx/2bx,{16}3,6,3,6,3,6,3,6,4,5,4,5,
4,5,4,5,4,5,4,5,3,6,2,7,1,8,1,8,
1,8,1,8,1,8,2,7,1,8,2,7,1,8,2,7,
1,8,2,7,1,8,3,6,1,8,3,6,1,8,3,6,
{4}1x-4[8:1],1xh[8:13],C,{8}B5,B6,
,B5,{4}B6,{8}B4,B5,B6,B7,
{4}8x-5b[8:1],8bxh[8:13],C,{8}B4,B3,
,B4,{4}B3,{8}B5,B4,B3,B2,
{4}7x/E1/B8/B1,6x/B5/B4/E5,2x/E1/B8/B1,3x/B5/B4/E5,
7bx/4bx,2bx/5bx,8bx/3bx,1bx/6bx,
{24}2,1,2,1,2,1,{8}2,{24}7,8,7,8,7,8,7,{12},{24}1,8,1,8,1,8,
{16}1b,{8},{16}8b/2b,{8},Cfh[8:5],,,,,,{16}8/1,
7/2,{8}6/3,8-5[8:1]/1v4[8:1],,1/8,,5/4,
6/3,{16}5/4,6/3,{8}7/2,1-4[8:1]/8v5[8:1],,1/8,,5/4,
8,{16}8,1,,1>4[16:3],{8}1x/8x<5b[8:1],,,,6/3,
4,{16}4,5,,5<8[16:3],{8}5x/4x>1b[8:1],,,,{16}1,6h[16:1],
4,6,1,6,4,6,1,6,4,6,1,6,{8}3h[16:3],8,
{16}5,3,8,3,5,3,8,3,5,3,8,3,5,3,{8}8,
{4}8b-3[8:1],{8}8/4,4-7[8:1],,4/1-7<6b[8:1]*-3<4b[8:1],1,1b,
,{16}3,2,1,8,5,6,7,8,2,3,4,5/6,7,8,
{8}1/2,{16}2-6[8:1],1,{8}2,2x/1x-5[8:1],8,1x/2x,3,{16}2,1,
{8}8/7,{16}7-3[8:1],8,{8}7,7x/8x-4[8:1],1,8x/7xh[4:1],{4},{16}2b/C,
{8},{16}6b/C,{8},3b/Cf,,5-1b[8:1],7/3,{32}5b/D6/D5f,B4/B6,B2/B8,D2/D1,
{8},3bh[8:3]/7bh[8:3],{16},,,,,,,8/1,{8},{32}2-8[8:1]/7-1[8:1],D3/D7,A3/A6,D4/D6,
{8}A4/A5,{4},{16}5,7,1,7,5,7,1,7,4,7,
{8}2h[4:1],{4},{16}4,2,8,2,4,2,8,2,5,2,
{8}7h[4:1],{4},{8}5/1-5[4:1],{16}6,{8},{16}7,{8},8,
{48}1,A1,B1/E2/B2/E1/B8,C,B5,A5,{8},,,{2}Cfh[2:1],
{16},8,1,8,1,7,8,7,8,6,3,6,3,4,2,4,
2,6,4,6,4,8,3,8,3,6,1,6,1,7,8,7,
8,4,3,5,2,4,3,5,2,8,3,6,1,7,4,5,
2h[16:1],1h[16:1],3h[16:1],8h[16:1],4h[16:1],7h[16:1],5h[16:1],6h[16:1],1h[16:1],8h[16:1],2h[16:1],7h[16:1],3b,6b,{8}4b/5b,
{16}1,8,1,8,2,1,2,1,3,6,3,6,5,7,5,7,
3,5,3,5,1,6,1,6,3,8,3,8,2,1,2,1,
5,6,4,7,5,6,4,7,1,6,3,8,2,5,4,8h[16:1],
1h[16:1],8h[16:1],1h[16:1],7h[16:1],2h[16:1],7h[16:1],{24}2h[12:1],,6,3,6,3,6,3,6,{8}3b,5b/4bqq2qq8qq6qq4pp6pp8pp2pp4b[4:9],
{1}Cf,
E
