&title=Ever be my love
&artist=山田タマル
&first=-0.2
&lv_5=13
&des=Bouquet For Chthorry
&inote_5=
(93){4},2-4[8:1],5,2-5[8:1],
6,2-6[8:1],{8}7b,{16}E7,E5,E8,E4,E1,E3,
{4}E2,7-5[8:1],4,7-4[8:1],
3,{8}7-5[8:1],8pp4[4:1],7,8<5[4:1],{4},{8}3,
2,{4}4h[4:1]/8>3[8:1],,5h[4:1]/1>4[8:1],
,6h[4:1]/2>5[8:1],{8},{16}E7,E5,E8,E4,E1,E3,
{4}E2,4h[4:1]/1<6[8:1],,3h[4:1]/8<5[8:1],
,2h[4:1]/7<4[8:1],,{16}A3,A4,A5,A6,
A3,A4,A5,A6,{4}3h[4:1],{8}4,5,{4}6h[4:1],
{8}5,4,{4}2V46[4:1],{2}6V82[4:1],
{4},7<4[8:1],{8}8,1,{4}2-5[8:1]*-6[8:1],
,7<3[4:1],{2}3>7[4:1],
{4},{8}3-5[8:1],2,{4}1,{8}7-3[8:1],6,
{4}5,5-1[8:1],{2}5pp5[4:1]*qq5[4:1],
{4},{8}3-8[8:1],4,5,6-1[8:1],5-2[8:1],6,
{4}5,{8}1/8h[8:7],7,6,5,4,3,
2,1,{4}1<5[4:1],{8}4,3,{4}2V86[4:1],
{8}5,4,{4}3>7[4:1],{8}6,5,{4}4V28[4:1],
{8}7,6,{4}5-8[8:1]*-1b[8:1],,4v7b[8:1]*-1[8:1],
,5w1b[4:1],{2},{8}8/1-5[8:1],
2,{4}1/3>7[4:1],{8},4,{4}3>7[4:1]*>7[4:1],
{8},4,{4}3>7b[4:1],{16},,,4,{8}4,6<2[8:1],
2<6[8:1],4h[8:3],{16},,,,,,,3,{8}3>1[8:1],8/1,
{16}3/4h[4:3],{8},{16}8,{4}8<2[8:3],{2},{8}1/8-4[8:1],
7,{4}8/6V82[4:1],{8},5,{4}6V82[4:1]*V82[4:1],
{8},5,{4}6V82b[4:1],{8},4,4b-8[8:1],3/5,
{4}4bw8[8:1],4b,{8},5,5b-1b[8:1],6/4,
{4}5bw1b[8:1],5b,{8},5/3,{4}4b-8[8:1],
4bw8b[8:1],4bpp4[1:1]*qq4[1:1],,,,,,5pp4[4:3],
,,,,,3b,
,5b,
,{8}3/5-2[8:1],6,7/5,8,1-6[8:1],2,
1/3,4,{4}5-2[8:1]*-1[8:1],5-8[8:1],{8}5,E3,
{4}E4,{8}4<7[8:1],3,2,1pp5[4:1],8-6[8:1],1,
{4}8,4-7[8:1]*-8[8:1],4-1[8:1],{8}4,E7,
{4}E6,{8}6h[8:3],5,4,3,3h[8:3],4,
5,6,{4}6h[2:1]/4qq4[4:1],{2}4pp4[4:1],
{8},{16}5,4,{8}6-1[8:1],2-5[8:1],6/5,2,1-6[8:1],5-2[8:1],
1,5<4[4:3],E5,E6,E7,E8,E1,E2,
E3,E4,{4}8V24[4:1],{8}5,6,{4}7>3[4:1],
{8}4,5,{4}6V82[4:1],{8}3,4,{4}5<1[4:1],
{8}2,3,{4}4-7[8:1]*-1[8:1],,5v8[8:1]*v2[8:1],
,4w8b[4:1],{2},{8}3/4-8b[8:1],
5,{4}4/6<3[4:1],{8},5,{4}6<3[4:1]*<3[4:1],
{8}4,5,6<3b[4:1],{16}D4,D5,D6,{8},{16}6,{8}6,7-5[8:1],
4qq8[4:1],7,{4}4,{8},4,3-7[8:1],2,
{16}3/1w5[8:3],{8},{16}1,{4}1,{2},{8}6/5-1b[8:1],
4,{4}5/3>6[4:1],{8},4,{4}3>6[4:1]*>6[4:1],
{8}5,4,3>6b[4:1],{16}D6,D5,{8}D4,4,4-8[8:1],2/6,
{4}4<7[8:1]*>1[8:1],4,{8},5,5-1[8:1],3/7,
{4}5<8[8:1]*>2[8:1],5,{8}4,5,6,7,
8-5b[8:1],4,8-3b[8:1],4,8-5b[8:1],4,8-3b[8:1],4,
8w4b[4:1],4,{4}8b,{16},,,5,{8}5,3>7b[8:1],
7>3b[8:1],5h[8:3],{16},,,,,,,6,{8}6<8b[8:1],8/1,
{16}6/5h[4:3],{8},{16}1,{4}1>7b[8:3],{2},{8}3,
2,1>4b[8:1],5,1<6b[8:1],5,1>4b[8:1],5,
1w5b[4:1],5,{4}1b,{8},3/5,4b-8b[8:1],8,
{4}4bw8b[8:1],4b,{8},6/4,5b-1b[8:1],1,
{4}5bw1b[8:1],5b,{8},3/5,{4}4bw8b[8:1],
4bpp4>1b[1:1]*qq4<7b[1:1],4b,,,,,,4qq5[1:1],
{2},,,{4}3h[4:1],
4h[4:1],
5h[4:1],6pp5b[4:3],{8},,,,,,,,,6,
5,4q6b[2:3],
{4}3,{32}B5,B6,{16}E7,
E
