&title=ひとりぼっちのユーエフオー
&artist=ピノキオピー
&first=0.03
&des=RIN_shaku vs HPjun
&des_5=RIN_shaku vs HPjun
&lv_5=14
&inote_5=(183){4},,,,1>4[8:1],
{8}1,8<5[8:1],,8,{4}2q5[2:1],
{8}2,6,7,8,,,{4}2-5[8:1],
2-7[8:1],{8}2,4-8[8:1],,4,{4}6-3[8:1],
6-1[8:1],{8}6,4,,3-8[8:1],,,{4}6-3[8:1],
{8}16,2-6[8:1],,28,{4}8,
{8}8
,{16}7,5,{8}6-2[8:1],6,4,3,{16}4,5,6,7,
{4}8/4b-8[8:1],{8}4,3-7[8:1],,3,{4}8<4[4:1],
4>8[4:1],8<4[4:1],{8}3,2,{16}1,2,3,4,
{8}5-2[8:1]/7b,4,5/7-4[8:1],8,57,3,{16}2,1,8,7,
{4}6/8b-4[8:1],{8}8,1,2,2,{16}3,5,2,6,
3-7[8:1],,,5-1[8:1],,,{8}4-8[8:1],{16}4,,,6-2[8:1],,,{8}1,
{16}1,,,1,,,{8}18,{4}27,{16}1-5[8:1],8,2,7,
{8}1b,{16}6,7,{8}8,1,{16}1,2,{8}3,{16}7,6,5,2,
{8}2,1,{16}81,27,{8}36,4,6,{4}7,
{16}8,7,6,5,{8}4-7[8:1],4,3-8[8:1],3,7,7,
{16}7,6,54,3,{8}2-5[8:1],2,1-6[8:1],1,3,4,
{16}7<4[8:1],,,2,,,{8}1p4[8:1],{16}8,,,7,,,{8}3,
{12}6,2,7,4,5,3,6,1,3,7b<4[4:1],,,{4}4>1[4:1],
1-5[4:1],5-8[4:1],8-3[4:1],
3>6[2:1],4,,2>5[4:1],
5-1[4:1],1-4[4:1],4-8[4:1],8<5[4:1],
5q2[2:1],7,
,8<4[4:1],
4>8[4:1],8,,2>6[4:1],
6<2[4:1],2,,8-4[8:1],
8-3[8:1],8-5[8:1],8,4>1[8:1],
4<7[8:1],4w8[8:1],4,2-6[8:1]/6,
28,1v6[8:1],1v4[8:1],1,
5,2qq8[4:1],2v5[8:1],2,6V84[4:1],3v5[8:1],3,7q4[8:1],7,3,
{8}3,2,{16}7,5,6,5,
{8}6,7,{16}2,4,{8}3,3,5,{16}6,5,{8}7,
{16}3,4,2,4,{8}3,5,4,6,{4}7,
{16}3,4,{8}3,{16}3,5,{8}3,{16}3,6,{8}3,{16}4,7,{8}4,
{16}7,4,{8}7,{16}7,3,{8}7,{16}6,2,{8}6,{16}6,1,{8}6,
{16}1-5[8:1],,,8,,,{8}7-3[8:1],{16}2,,,2,,,{8}2,
{12}7,3,6,1,8,2,7,4,2,6b<1[4:1],,,{4}1-4[4:1],
4q8[4:1],8<5[4:1],5-2[4:1],
2v7[4:1],1,1,3-8[4:1],
8p4[4:1],4>1[4:1],1q5[4:1],5-8[4:1],
8q3[2:1],6,5,5V71[4:1],
1V35[4:1],5,1,3V17[4:1],
7V53[4:1],3,7,5-1[8:1],
4-8[8:1]/5,4/7-4[8:1],3-8[8:1]/7,3/6-1[8:1],
2-5[8:1]/6,8-4[8:1]/2,1-5[8:1]/8,1/6-1[8:1],2-5[8:1]/6,2/7-4[8:1],
3-8[8:1]/7,5-1[8:1]/3,4-8[8:1]/5,4/6p2[8:1]*v1[8:1],6,
3h[8:1]/8h[8:1],4h[8:1]/7h[8:1],5h[8:1]/6h[8:1],4h[8:1]/3h[8:1],1h[8:1]/2h[8:1],
1b-6[8:1]/8b<6[8:1],8b-3[8:1]/1b>3[8:1],1b-6[8:1]/8b-6[8:1],8b-3[8:1]/1b-3[8:1],
{8}1b/8b,,,8-6[8:1],,,{4}3,
{8}5-7[8:1],,,2,,,{4}1v4[8:1],
{8}6,,,5v8[8:1],,,{4}2,
{2}1-5[8:1]*-4[8:1],{4}6,7,
8b-6[8:1],8-2[8:1],8-5[8:1],8-3[8:1],
8b<5[8:1],8>3[8:1],8w4[8:1],8,
{8}5h[8:1]/1,1,2h[8:1]/6,6,7h[8:1]/3,3,4h[8:1]/8,8,
7b/3b,3/7,2/6,2/6,{4}1w5[8:1]/5,1b,
{8}2b/7b,{16}18,27,{8}36,36,12,56,78,34,
{4}1-3[8:1]*-4[8:1],1-7[8:1]*-6[8:1],1w5[8:1]*-5[8:1],1,
{8}34,2,56,7,34,1,56,8,
{4}1-3[8:1]/8-4[8:1],8-6[8:1]/1-5[8:1],1-3[8:1]/8-4[8:1],81,
{16}6,5,{8}7,12,45,{16}3,4,{8}2,78,45,
24,24,35,35,46,46,{4}5w1[8:1]/7,
{8}5b,,,2b-5[8:1],,,{4}8b-4[8:1],
{8},5b-1[8:1],,,{4}3b-7[8:1],2b,
{8}1b,{16}1,8,{8}1h[4:1],7,8h[4:1],2,1,2,
{16}7-4[8:1],5,{8}6,7,3,{4}2w6[8:1],2,
{8}1,8,8-4[8:1],1,1-5[8:1],2,7-3[8:1],7,
{4}7-5[8:1]/4-1[8:1],7/4-8[8:1],4/2w6[8:1],2,
1b-5[8:1],1-3[8:1]/5-7[8:1],1w5[8:1]/5,1,
{8}7b-3[8:1],4,3,2,{16}1,2,3,4,5,6,7,8,
{8}1b-5[8:1],{16}7,6,{8}5,7-3[8:1],3,2,1pp4[2:1],1,
8,{16}8,7,{8}6,6,5<8[8:1],5,3,3,
4,{16}7,6,{8}5,2>5[8:1],2,6<1[8:1],6,6,
{4}5-1[8:1]*-2[8:1],5-8[8:1],5>2[8:1]*>2[8:1],5,
{16}8,2,{8}1<6[8:1],4,3,2,1>4[8:1],5,6,7,
8p3[8:1],3,2,1,8q5[8:1],{4}7,
{8}7b-4[8:1],,,2b-7[8:1],,,{4}4bV68[8:1],
{8},3bs7[8:1],,,{4}5bv8[8:1],2b-6[8:1],
{8}2b,{16}1,8,{8}7-5[8:1],7,4-2[8:1],4,6>4[8:1],6,
{16}2,1,{8}8,{16}15,26,{8}37,{16}48,37,{8}26,{16}18,27,{8}36,
36,{16}4>1[8:1],5,{8}4,5,6,7-4[8:1],3,2,
{4}1v4[8:1],1v6[8:1],1-5[8:1],1,
{8}3b,{16}3,2,{8}1,1,2,6-2[8:1],6,4-8[8:1],
4,{16}5,6,{8}7,7,1-5[8:1],1,6<8[8:1],6,
{16}2b,3,{8}4>2[8:1],4,{16}7,6,{8}5,1-3[8:1],1,5-7[8:1],
5,{16}2,3,{8}4-2[8:1],4,{4}6-8[8:1],6-2[8:1],
6>1[2:1]/3,62,{8},,,,2b,
{16}2,3,{8}4-1[8:1],7,{16}7,6,{8}5,{16}2,5,3,4,
{8}3>1[8:1],3,{16}5,6,{8}7,8-4[8:1],8,{4}8,
{16}2,3,4,5,{8}6,8-5[8:1],3,2,1,1,
{16}7,6,5,4,{8}3,2-5[8:1],2,1-6[8:1],1,4,
{16}4>1[8:1],,,6,,,{8}5,{16}5<8[8:1],,,2,,,{8}3,
{16}3v8[8:1],,,5,,,{8}6,{16}7v4[8:1],,,1,,,{8}2,
{16}2b,3,{8}4-7[8:1],4,5b-2[8:1],5,3,4b-1[8:1],4,
5b-8[8:1],5,6b-4[8:1],6,7b-3[8:1],7,{4}2b-6[8:1],
{8}2b,{16}7,8,{8}1-6[8:1],1,{16}3,4,{8}5,{16}7,6,5,4,
{8}2-5[8:1]/3,2,{16}8,7,{8}6,1-5[8:1],1,{4}1,
{16}8,7,6,5,{8}34,2,56,7,45,27,
{16}2,3,5,6,{8}2-6[8:1],6,7,8,8-4[8:1],3,
{16}2>5[8:1],,,6,,,{8}7,{16}7-2[8:1],,,4,,,{8}3,
{16}3v8[8:1],,,7,,,{8}6,{16}6p2[8:1],,,2,,,{8}3qq8[4:1],
3,6,,7,7,2h[8:3],,8,
{4}1b-6[8:1]*<6[8:1],1b>4[8:1]*-4[8:1],1b<6[8:1]*-6[8:1],1b,
{24}1w5[8:1],2,3,5w1[8:1],6,7,1,
E
