&title=あいたい
&artist=onoken feat. Rin
&first=-1.43
&des=uwnkon eat.Zhengjiu
&lv_5=14
&inote_5=(79.5)
{1},
{8}6h[8:15]/5,,5,,2,,2,,
{8}4h[8:1],,4h[8:1],,1h[8:1],,1h[8:1],,
{8}1^6[16:3]/6,,,{16},,8V62[16:3],,,,,,,,
{8}8>4[16:3]/3,,,{16},,2V84[16:3],,,,,,6,,
{8}3^6[16:3]/8,,,{16},7,7p2[16:3],,,,,,,,
{8}1p8[16:4],,,{16},7-3[32:5],7,,8h[16:1],,,1,,,
{8}2^4[16:3]/5,,6,{16},7,7^2[16:3],,,,2,,,,
{8}3-5[32:3],5-2[32:3],2-6[8:1],{16}1s5[8:2],8z4[16:3],7,,,,,,,,
{8}7>3[16:3]/3,,5,{16},1,1<5[16:3],,,,4,,,,
{8}7>6[16:5],,3,{16},1,2,,3,{32}4-8[16:1],7,4,,5,,3h[16:1],,{16},
{8}2h[8:1],1h[8:1],4h[8:1],{16}5h[8:1],,6^3[8:1],,7,8,6,,1,,
{16}1^4[32:4]*qq8[16:3],,2,8qq1[32:6],,,,,4,,{32}3,,2,1,2,,8h[16:3]/3,,,,,,
{16}2^5[16:3],,5,5p1[32:5],,,1<2[16:6],,7,,,,,,8,7,
{16}6,,15,15,,26,2h[4:1]/6,,1,,3,{32}4-8[16:1],2,5h[16:2],,3,,4h[16:1],,,,
{8}7h[8:1],8h[8:1],5h[8:1],{16}4h[8:1],,3-6[8:1],,2,1,3,,8,,
{16}7-3[32:3]*V51[32:5],,6,8-4[32:3],,,,,2,2-5[32:3],31,{32}2,2,2,,2h[16:3],,,,,,
{16}5V31[16:3],,1,1-5[32:3],,,5<4[16:6],,7^2[64:9]*^2[64:9],,,,,,8,,
{16}8h[8:1],,,,1h[8:1]/5h[8:1],,,,6bp5[32:5]/2b,,6p4?[159#16:5]*p4?[159#16:5],,,,,,
{32}7-4[159#32:3],8,6,8,7,,2-5[159#32:3],1,3,1,2,,8,,,,6-1[159#32:3],5,7,5,6,,3-8[159#32:3],4,2,4,3,,5,,,,
7^4[159#32:3],8,6,8,7,,2-6[159#32:3],1,3,1,2,,7h[32:4],,6,8,1,,4/2h[32:4],,3,1,8,,7/2,,63,,4,5,3,,
{32}2-5[159#32:3],1,3,1,2,,7-4[159#32:3],8,6,8,7,,1,,,,3-8[159#32:3],4,2,4,3,,6-1[159#32:3],5,7,5,6,,4,,,,
2^5[159#32:3],1,3,1,2,,7-3[159#32:3],8,6,8,7,,1,,2,3,4,7h[32:1],5,7h[32:1],4,7h[32:1],3,7h[32:1],2,6h[32:1],2,5h[32:1],2,4h[32:1],2,4,
{48}1b/6,2,3,4,,,{32}1h[32:1],4h[32:1],{48}1,2,3,4,,,{32}1,6,1h[32:4],,,,
{48}8,7,6,5,,,{32}8h[32:1],5h[32:1],{48}8,7,6,5,,,{32}8,3,8h[32:4],,,,
{48}1,2,3,4,,,{32}1h[32:1],4h[32:1],{48}1,2,3,4,,,{32}1,5,1h[32:4],,,,
{48}8,7,6h[48:4],,,,1,2,3,4w8[159#16:3],7,6,5,4,,,,,,,,,,,
{48}2b/6,3,4,5,,,{32}2h[32:1],5h[32:1],{48}2,3,4,5^8[159#8:1],,,{32}2,,3,,4,,
{48}18,2,3,4,,,{32}1h[32:1],4h[32:1],{48}1,2,3,4^7[159#8:1],,,{32}1,,2,,3,,
{48}73,6,5,4,,,{32}7h[32:1],4h[32:1],{48}7,6,5,4^1[159#8:1],,,{32}8,,8,7,6,5,1h[32:1],4,
{32}1h[32:1],5,1h[32:1],6,1h[32:1],7,2h[32:1],8h[32:1],3h[32:1],7h[32:1],2h[32:1],6h[32:1],1h[32:1],5h[32:1],8,
{32},1-5[159#8:1]/5,26,37,8>8[159#32:102]*-4[159#16:27]/4,,,{4},,,
{4},,,,
{2}1h[1:1],3h[16:19],
{4},,{16}5h[8:3],,,,,,7,,
{16}3v5[159#16:5]/8<8[159#8:20],,,,,,,,3h[8:3],,,,,,,,
{16}4h[8:3],,,,,,,,{32}3/7,6,5,4,3,2,1,8,
73,4,5,6,2,3,4,5,
{16}1bV73[159#16:3],,1/6-2[159#8:1],5,,3,4,1/5,8V26[159#16:3],,8/3-7[159#8:1],4,,6,5,48,
{16}1-5[159#8:1],2,3-7[159#8:1],4,,,6,8v2[159#8:1]/5-7[159#8:1],4/2<3[159#16:4],,,,{32}8,7,6,5,14,2,3,4,
{16}8b/5b,7-3[159#8:1],6,1^6[159#8:1]/7,2^5[159#8:1],,,,1,2v5[159#8:1],3,8-4[159#8:1]/2,7-3[159#8:1],,,,
{16}4,3^8[159#8:1],2,5-2[159#8:1]/3,6-1[159#8:1],,,,
38,4pp8[159#8:3]/7,56,2pp3[159#8:1],,,,,
{32}3,8,3,8,5,6,5,6,4,3,2,1,7,6,5,4,
8,4,8,4,8,6,8,6,8,1,2,3,8,7,6,5,
{32}2,4,2,4,3,5,4,6,4,7,3,6,2,5,1,4,
{4}8h[24:7],{48}5b>5[1:2]*>4[4:1]*>3[2:1]*>2[4:3]*>1[1:1]*>8[4:5]*>7[2:3]*>6[4:7],6,7h[24:5],,,,,,,,,,
{1},,
{8}8,,8,,7,,7,,
{8}6h[8:1],,6h[8:1],,5h[8:1],,5h[8:1],,
{8}1^6[8:1]/2,,5,4,1<5[16:2]/3,,4,3,
{8}1<4[16:2]/2,,3qq2[16:6],,4pp5[8:2]*pp5[8:2],,,,
&inote_6=
