&title=ANIMA
&artist=xi
&first=0.021
&des=Dreaming
&des_5=Dreaming
&lv_5=14
&inote_5=(183.5)
{4},,,,{64}6,
4h,{4},,,{16},,,{32},{64}3,
5h,{4},,,{16},,,{32},{64}4qq1[4:7],
5h,{1},{16},,,{32},{4}7,
6,5,
{1}4V68[4:3],
{2}2pp5[4:3],1,
7<8[2:3],3h[2:1],
{4},E3,C,E7,
{8}4bV28v3[4:3],,,,,7,6,5,
5V74V68[4:3],,,,,1,2,3,
{4}4>1[4:1],B2/B3,5<8[4:1],B7/B6,
2V46[4:1],1,{2}8-4[8:1],
{16}3,5,3,5,4,5,4,5,4,6,4,6,4,7,4,7,
4,3,2,1,5,6,7,8,2,3,4,5,8,7,6,5,
4/3x,2,1,8,7,6,5,4,3/8,1,2,3,4,5,6,7,
{2}4/8-4[8:1],{8}E3,B3,E7,B6,
{4}1s5[2:1],8,7-3[8:1],C,
{8}2b/4,{16}3,4,{8}2-8[8:1],8-4[8:1],7,6,5V73[4:1],2,
3-8[8:1],1,2,4,{4}5b-2[8:1]*-1[8:1],5b,
{8}8/3,{16}7,5,{8}6-8[8:1],8-4-6[4:1],4,3,2,1,
8-4-2[4:1],7,6,5,{4}6b-1[8:1]*-2[8:1],6b,
{8}8/3,{16}2,1,{8}3-5[8:1],5-2[8:1],8,7,6V48[4:1],1,
8V26[4:1],2,3,4,{4}5b-8[8:1]*-1[8:1],5b,
{8}2>5[8:1],1,8,7>2[8:1],6,5,4-8[8:1],8V64[4:1],
1,2,{4}3,{16}2,4,2,4,3,5,3,5,
4b,3,2,1,8/4,5,6,7,8/2,3,4,5,8,7,6,5,
{8}3/4,2/6,{24}8,7,8,7,,,{4}1-4[8:1]/8-5[8:1],1/8,
{8}7/2,{16}1,8,2,7,3,6,{4}4-1[8:1]*-8[8:1],4,
{16}2,3,4,5,8,7,6,5,3,2,1,8,7,6,5,4,
{4}3/7b-5[8:1],1/7b-3[8:1],8/7b,{16}2,4,2,4,
{4}5/1b-5[8:1],1/6b-1[8:1],{8}6/3,{16}3,4,5,6,7,8,
{4}1/5,{16}3,4,3,4,{4}2-5[8:1]/5-1[8:1],5/2,
{8}8/4,{16}3,7,2,6,1,5,{4}8-3[8:1]/4-7[8:1],4/8,
8b/1b,{12}2/4,3,4,7/5,6,5,2/7,1,8,
{8}2/7<4[8:1],{24}3,2,1,{4}8b,8-3[12:1]/3-7[12:1],8/3,
{16}8/4,7,6,5,4,3,2,1,8/3,4,5,6,7,8,1,2,
3/7,6,5,4,1,2,3,4,{4}1-6[8:1]/5-2[8:1],1/5,
8b/1b,{12}7/5,6,5,2/4,3,4,7/2,8,1,
{8}7/2>5[8:1],{24}6,7,8,{4}1b,1-6[8:1]/6-2[8:1],6/1,
{16}3/8b,2,1,8,7,6,5,4,3/6b,7,8,1,2,3,4,5,
6/1,2,3,4,8,7,6,5,{4}8-4[8:1]/4-7[8:1],4/8,
1b/3b<6[4:1],{12}6V41[4:1],7,8,{2}1bV38[4:1],
{8}6b,{16}6,7,{8}6,{16}6,5,{8}6,{16}6,4,{8}6,{16}6,3,
{4}6>3[4:1],{12}3V58[4:1],2,1,{2}8bV64[4:1],
{8}2b,{16}2,3,{8}2,{16}2,1,{8}2,{16}2,8,{8}2,{16}2,7,
{4}2v5[4:1],{12}5V38[4:1],6,7,{2}8bV24[4:1],
{8}6b,{16}6,5,{8}6,{16}6,7,{8}6,{16}6,8,{8}6,{16}6,1,
{8}2/5,2/5,6/4,6/4,8/7,8/7,8/1,8/1,
{16}8/1,2,3,4,5/1,8,7,6,5/4-8[8:1],3,2,1,{4}4b/8,
{16}2,1,{8}2,{16}7,8,{8}7,{16}2,1,{8}3,{16}7,8,{8}6,
{16}3,4,{8}3,{16}6,5,{8}6,{16}3,4,{8}2,{16}6,5,{8}7,
{16}1,8,1,8,2,7,2,7,3,6,3,6,4,5,4,5,
4,3,2,1,8/4,5,6,7,8/2,3,4,5,8-4[8:1],7,6,5,
{32}4/8V64V28[2:3],B8,C,B4,{4},,,{16},,{4}8,
7,6,5,
4h[4:1],{8}3,4,{4}2,5/4,
7V53[4:1],8,2V46[4:1],1,
{16}B1,B2,B3,B4,B5,B6,B7,B8,{2}E5f/1xV75[4:1],
{16}E1,E2,E3,E4,E5,E6,E7,E8,{2}Cf/8xV24[4:1],
{16}B8,B7,B6,B5,B1,B2,B3,B4,{4}6V83[2:1],5,
3V16[2:1],4,{2}5-1[8:1],
{4}8b/2b,{8}6/4,5,{4}6/4,3/5,
{16}1,8,1,8,2,7,2,7,3,6,3,6,4,5,4,5,
{4}6/3,{8}3/5,4,{4}3/5,6/4,
{16}8,1,8,1,7,2,7,2,6,3,6,3,5,4,5,4,
6,5,6,5,7,4,7,4,{4}8-3[8:1]/3-1[8:1],3/8,
{16}8,7,8,7,1,6,1,6,{4}2-5[8:1]/5-1[8:1],2/5,
{16}4,8,4,8,5,7,5,7,{4}4b>7[4:1],7b<2[4:1],
2b<5[4:1],5b>8[4:1],{2}8bw4[8:1],
{8}1bs5[8:1]/2b<1-5[8:1],1b/2b,,,8bz4[8:1]/7b>8-4[8:1],8b/7b,{16},,,,3,
6,3,6,2,7,2,7,{4}1b-4[8:1]/8b-5[8:1],1b/8b,
{8}2b<1v4<5[8:1]/1bs5[8:1],1b/2b,,,8bz4[8:1]/7b>8v5>4[8:1],7b/8b,{16},,,,3,
2,1,8,5,6,7,8,{4}1b-6[8:1]/5b-1[8:1],1b/5b,
{1}7b/2bV83-5-1-4-7[4:3],
{16}6,5,4,3,2,1,8,7,{32}6/4-8[8:1],3,2,1,8,7,6,5,,4,,,,,,,{8}1b/7b,
2b/6b,{16}3,5,4,6,{8}5-1[8:1],7-4[8:1],5,7,
2h[8:1],3,{16}5,3,6,4,{8}7-4[8:1],8-3[8:1],7,8,
6,7,{12}8/1,8/1,8/1,{6}2h[12:1]/7h[12:1],3h[12:1]/6h[12:1],5/4,
{16}4/5,3,2,1,8/4,5,6,7,{32}8/5-1[8:1],4,3,2,1,8,7,6,{4}5,
{8}7V51[4:1],2,3,4,5V37[4:1],8,7,6,
5-7[8:1]*-8b[8:1],1,{4}5-2b[8:1]*-3[8:1],5w1[8:1],5,
7b/3b,{12}6/4x,{24}4,6,{12}4,5/2x,{24}2,5,{12}2,4/1x,{24}1,4,{12}1,
2>4[12:1],1,8,7>1[12:1],6,5,4<6[12:1],3,2,1>3[12:1],8,7,
{4}6b,{16}1,8,2,7,{32}3,2,1bx,8,7,6bx,5,4bx,3x/8bx,1,2,3bx,4,5,6bx,7,
{1}8h[1:2]/Ch[1:2],
E
