&title=《真紅》 ~ Pavane Pour La Flamme
&artist=林柏勲 Bo-Xun Lin feat.幻子 Maboroshiko
&first=0
&des=lamia
&des_5=
&clock_count=4
&lv_5=14
&inote_5=(165){4},{1},,,,,,{4},,{16},,,3,
,,,1>4[4:1],,,,6h[4:1],,,,,,,,4/5,
,3,,2h[8:3],,,,,,7h[8:7],,,,,,,{1}5qq1[2:3],
{4},,,{16},,,{32}E7,E6,
{1},{4},,,{16},,,2/4,
,,{8}5,,6h[16:7],,,,,,,,,,,,6/5,
{16},4,,,,,,,,,,7,,8h[16:3]/3h[16:13],,,,,,,,,,,,,{8}7,
{16},6,,6,
,,,,{4}5p7[4:3],{8},,,,,,,,6/3h[8:3],
,,2<5[1:1],
,,,E4,,E3,,E2,
,8bh[16:17],,,,,,,{4}4h[16:3],
{16}1x/5x,2x/6x,3x/7x,4xh[4:1]/8xh[4:1],,,,,,,,8,
,7,,6/4,,,{8}5/2,3,4<8[16:5],{16},,,,,,,B1,
,,4,3/7h[4:1],,,,6xh[8:1],,,,5xh[4:1],
,,,4,,3,,5/4,,7,,8/2,,,,5/3v8[8:1],
,,,3/6-2[8:1],,7,,6/1<5[8:1]*>5[8:1],,,,1w5[16:17],{1},,{16},B1,
,,,E4,
,E5,,,,,,,,5,,4,,3h[4:1],
,,,7h[4:1],,,,1x>6-2[16:15],,,,,,,,,,,,,,,{8}7x<1s5b[8:7],
,,,,,,,,{2}1h[16:13],
{4},,,5h[4:1]/3h,
{8}1,8,B7/B2/E3,5,{4}4h[4:3],6,
3,5xh[4:1],{8},,5/3,4,
5/6,B6/B2/Ch[4:1],,8x,{4}1/7,2,
{8}8/1,{16}1,7,{8}2,{16}3,5,{8}4,{16}5,6,{8}4,{16}3,5,
4,6,3,7,4,6,3,5,{4}2bv5[8:1],{8}7x>3[8:3],6h[8:1],
,5h,,5h,{4}7v4[8:1],{8}2x<6[8:3],3h[8:1],
,4h,,4h,{2}5>7[4:3],
C,{4}5-1[8:1],5/3h[8:1],
{8}2/8,{32}E4,B4,B5,E6,{4}A6,3bv8[8:1],{8}6x>2[8:3],7h[8:1],
,8h,,8h,{4}6v1[8:1],{8}3x<7[8:3],2h[8:1],
,1h,,1h,8>6[1:1],,,5,
{2}7h[4:1],{4}8,C,
{8}2,1/8v6[8:1],,8,{4}1>4[8:1],{8}1,6v8[8:1]*v1[8:1],
,6,{16},,,2h[4:1],,,,4h[16:5],,,,6h[16:5],
,,{8}8h[4:1],,2,4/3,5,6/7,7`8,
2/4,{16}3,5,6,4,5b,7,4,8,3b,8,2,6,2b,6,
{24}1,2,3,4b,5,6,1V75b[8:1],2,3,4,5,6,{2}1bV35[8:7]*>8[2:3],
{4},,,,,1bw5b[2:3],
,,,,,,,,6/2,
6/4,
6/8,6/1,1/7,8/3,
7/4,5/2,{2}6h[8:5]/4b>5s1[2:3],
,1xs5b[2:1],
,3h[8:5]/7b<1s5[2:3],
,4xz8b[2:1],
,6bh[8:3]/1bh[8:3],
{16}2/7,,,2,{4}4/3h[8:5],{16}2,1,8,7,6,5,{8}4,
{16}7/2,,,3,{4}3/5b,{16}7/2,,,7,{4}5/6h[16:11],
{16}7,8,1,2,3,4,{8}5,{24}7x,6x,5x,4x,3x,2x,{4}1bx,
{1},{4},,,{16},2h[16:9]/5h[16:17],
,,,,,,,,,,,,,,,,{8}1xV73>2-5[1:1],
,,,,,,,7xV15b[8:3],
,,,,{2}3h[4:3],
{4},,,4h[4:1]/6h,
{8}8,1,B2/B7/E7,4,{4}5h[4:3],3,
6,4xh[4:1],{8},,4/6,5,
4/3,B3/B7/Ch[4:1],,1x,{4}8/2,7,
{8}1/8,{16}8,2,{8}7,{16}6,4,{8}5,{16}4,3,{8}5,{16}6,4,
5,3,6,2,5,3,6,4,{4}7b-4[8:1],{8}2xV86[8:3],3h[8:1],
,4h,,4h,{4}2-5[8:1],{8}7xV13[8:3],6h[8:1],
,5h,,5h,{2}4-6<7-1>2[4:3]*-6[4:1],
C,{4}4-8[8:1],4/6h[8:1],
{8}7/1,{32}E6,B5,B4,E4,{4}A3,6b-1[8:1],{8}3xV57[8:3],2h[8:1],
,1h,,1h,{4}3-8[8:1],{8}6xV42[8:3],7h[8:1],
,8h,,8h,1<3[1:1],,,4,
{2}2h[4:1],{4}1,Ch[4:1],
B6/B3/E6/E4,{8}1/8,2,{4}1/8<4[2:1],{8}3,2h[8:1],
,,{4}1>5[2:1],{2}1/7h[4:1],
{8}6q2<7[2:1],,,4b,3h[16:3],,,2x,
,1x/5x,,4xh[8:5]/8xq4>1[2:1],,,,,,,5,
6,{4}7v4b[8:1],{8}2<6[8:3],3h[8:1],
,4h,,4h,{4}2v5b[8:1],{8}7>3[8:3],6h[8:1],
,5h,,5h,{2}4>5[1:1]*<3[1:1],
{4},,,,4h[4:1],
{8}7,6/5,4,3,2,7h[8:1]/1h[8:1],
,8/2,5/3,6,5/6,{16}7,3,{8}8,2/1,
{4}8h[8:1]/7h[8:1],{8}7/5,{16}4,4,{8}6,7,8,1,
2/4,3,5,{16}4,4,{8}6/5,4,3,2/1,
{24}7h[2:1]/E4,E5,E6,E7,E8,E1,E2,E3,,,,,{8}4,5,7,2h[8:1]/8h[8:1],
,1/7,4/6,3,4/3,{16}2,6,{8}1,7/8,
{4}1h[8:1]/2h[8:1],{8}2/4,{16}5,3,{8}5,2,1,8,
7/5,6,4,5,3/4,{16}5,4,{8}6,7/8,
{24}2h[2:1]/E6,E5,E4,E3,E2,E1,E8,E7,,,,,{4}5-1[8:1],{8}5,7-4[8:1]*-3[8:1],
,7,{16},,,1>4[8:1],,,,6<1[4:1],,,,1s5[4:1],
,,,5b,,,,2,{8}2,4,5/4,{16}6,3,
,,{8}5/4,{16}2,5,2b,3,4,5,1b,2,3,4,8b,1,
2,3,{32}8b,7,6,5,4b<4b[8:15],3,2,1,8,7,6,5,{2}4b,
,,,5bw1b[1:1],
,,,,,1h[16:31],
{16},,,,,,,,,,,,,,,6h[4:5],
,,,,,,,,,,,,,,,,,,,2,
,,,3,,,,,4,,,5,
,,,,{4}6>3[1:1],,,,,{2}6,
{16},,,,,4,{1},{32}2/E7,
E8,
E
