&title=焚音打
&artist=MyGO!!!!!
&first=0
&des=「迷うことに もう迷わない」
&lv_6=14+
&inote_6=(190)
{1},,
{1}8b-2[4:13]/1b-5[4:13],,,,
{1}6bV84[4:13]*v4[4:13],,,,
{8}6V84-2[1:1],,2,2,,1,1h[4:3],,,,,,,,,,
{8}6-2[8:3],,,2<4[8:7],,,3h[4:3],,,,,,,,,,
{8}8-5[8:3],,,5qq5[2:1],,,,,1-5[8:1],,1,,8h[2:1],,,,
{8}2x,,45,6,57,,54,3,
{16}4/2-6[8:1],,,1,2,,8,,3,4,2,5,4,6,1,8,
{24}2hb[2:3],,,,,,,,,,,,,,,,,,,,,,,,3x,,,,,,3x,,,,,,3x-7[8:1],4,5,6,7,8,1b/3b,,,,,,
{16}1x/2x,,3,,5,4,5,,78,,6,,3,4,3,,56,,4,,7,8,7,,56,,3,,2,1,2,,
{16}8x/7x,,6,,4,5,4,,21,,3,,6,5,6,,43,,5,,2,1,2,,43,,6,,7,8,7,,
{16}56,,2-5[8:1],4,3,,6/2x-6[8:1],,6,,2x/7,,7,,8,,12,,7-4[8:1],5,6,,3/7x-3[8:1],,3,,7x/2,,2,,1,,
{16}78,,6,5,6,,12,,3,4,3,,18,,27,,6hb[8:1]/5hb[8:1],,,,3hb[8:1]/4hb[8:1],,,,{32}1,2,3,4,5,6,7,8,{4}1b/C1f,
{16}3hx[16:1],4h[16:1],3h[16:1],4h[16:1],3h[16:1],4h[16:1],2hx[16:1],5h[16:1],2h[16:1],5h[16:1],2h[16:1],5h[16:1],1hx[16:1],6h[16:1],1h[16:1],6h[16:1],
{16}5hx[16:1],6h[16:1],5h[16:1],6h[16:1],5h[16:1],6h[16:1],4hx[16:1],7h[16:1],4h[16:1],7h[16:1],4h[16:1],7h[16:1],3hx[16:1],8h[16:1],3h[16:1],8h[16:1],
{16}1hx[16:1],8h[16:1],1h[16:1],8h[16:1],1h[16:1],8h[16:1],2hx[16:1],7h[16:1],2h[16:1],7h[16:1],2h[16:1],7h[16:1],3hx[16:1],6h[16:1],3h[16:1],6h[16:1],
{16}2hx[16:1],8h[16:1],2h[16:1],8h[16:1],2h[16:1],8h[16:1],2h[16:1],8h[16:1],{32}1bx-5[8:1]b,2,3,4,1bx,8,7,6,,,,,,,,,
{16}37,,6,5,6,,4<7[8:1]/3h[8:1],,,,2,,2,,,,18,,3,4,3,,5>2[8:1]/6h[8:1],,,,7,,7,,,,
{16}18,,2-6[8:1],4,3,,2/7-4[8:1],,,,3-8[8:1]/7,,,,36,,6-2[8:1],,,,1-5-1b[4:1]/6,,,,7,,7b,,,,,,
{16}6,,6h[4:1],,B4,B3,B2,,8,,8h[4:1],,E6,E5,E4,,7,,7h[4:1],,B3,B2,B1,,5,,5h[4:1],,E7,E6,E5,,
{16}3,,3h[4:1],,B5,B6,B7,,1,,1h[4:1],,E4,E5,E6,,2,,2h[4:1],,B6,B7,B8,,4,,4h[4:1],,E3,E4,E5,,
{16}6,,6h[4:1],,B4,B3,B2,,8,,8h[4:1],,E6,E5,E4,,7,,7h[4:1],,B3,B2,B1,,5,,5h[4:1],,E7,E6,E5,,
{16}3,,3h[4:1],,B5,B6,B7,,1,,1h[4:1],,E4,E5,E6,,2,,2h[4:1],,B6,B7,B8,,4,,6,5,6,5,6,5,
{8}7-3[8:1],7,4-8[8:1],4,6-2[8:1],6,1-5[8:1],1,6-4-7>1b[16:5],6,1,1b,,2,35,46,
{8}5/7-4-8[4:1],48,73,2hb[4:1],,1,38,47,56,7-3[8:1]/8-4[8:1],16,7b/8b,,16,25,34,
{8}1-4-2[4:1]/5-8-6[4:1],26,15,,,7x-5[8:1],5V72[4:1],7,2>4q8[4:1]b*>4v1[4:1]b,2,,,D1f/A8/A1,,,36,
{16}4>1[8:1],,4,,5,,6,,7-3[8:1],,7,,8,,1,,2,4,3,5,4,6,3,5,4,6,5,7,2b,,,,
{8}6pp1[4:5],6,,,,,4,4h[8:7],,,,,,,,,
{8}2pp5b[1:1],2,,,,,8,8h[8:5],,,,,{16}1x,,3,4,3,4,3,4,
{16}2h[8:1],,5,4,6h[8:1],,3,4,1h[8:1],,6,5,7h[8:1],,4,5,3h[8:1],,8,1,7h[8:1],,3,4,2-6[8:1],,8,8,2b,,,,
{16}1b/7b,,3,3,4,,2b/8b,,6,6,5,,27,,27,,{32}1b-5[8:1]/8b-4[8:1],27,36,45,,,,,{16}1bx/8bx,,,,3x/6x,,4,5,4,5,4,5,
{16}4bx/6bx,,7,,2,2,1,,38,,4,,6,6,5,,18,,7,,3,3,4,,28,,3,,7,7,8,,
{16}46,,3,,8,8,1,,35,,1<6[8:1],,2,2,1b>4[8:1],,3,,1b<6[8:1]/5,,7,,1b-5[8:1]/5,,,,7x,,7x,,6,,
{16}5b/4b,,3,,2,2,1,,53,,6,,1,1,8,,62,,3,,6,6,5,,87,,1,,3,3,4,,
{16}65,,7,,2,2,1,,34,,5,,7,7,8,,2b/5b,,3,4,3,4,3,4,3bx/6hbx[8:1],,4,5,4,5,4,5,
{16}4bx/7hbx[8:1],,3,,8,8,1,,62,,5,,3,3,4,,81,,2,,6,6,5,,71,,6,,2,2,1,,
{16}53,,6,,1,1,8,,64,,3,,2-5[8:1],2,1,,7-4[8:1]/2b,,8,,2-5[8:1]/7b,,1,,8-4[8:1]/2b,,1,,2-6[8:1]/8b,,1,,
{16}2b/7,,8,,3,3,4,,56,,3,,8,8,1,,37,,6,,3,3,4,,12,,8,,6,6,5,,
{16}3b/4b,,2,,17,7,8,,6b/5b,,4,,82,2,1,,4b/7b,,6,5,4b/7b,,6,5,4b/7b,,3,4b,3,4,3b,4,
{8}25,2,2,28,2,2,23,2,2,27,2,2,2-5[8:1]/5-1[8:1],,2b/5b,,
{8}38,8,8,68,8,8,48,8,8,28,1/7-3[8:1],2/8-4[8:1],7b<4b[8:1],8b,7b,,
{8}6x/2,2,2,23,2,2,27,2,2,24,2,2,2-5[8:1]/8-5[8:1],,2b/8b,,
{8}37,7,7,57,7,7,78,1h[8:3]/6pp1[16:7],,,,,{16}2,3,4,5,6,7,8,1,
{8}26,2bx/6bx-8-5-1[8:3],,5,4,4,3,3,2,2-8-3-7[8:3],,7,6,6,5,5,
{8}6,6,6h[8:5],7,7,8,8,1pp4[2:1],,4,5,6,7,8,8b,,
{8}56,4/7<4[8:1],38,2v5[8:1]/7,,25,6,7pp2[2:1],,6,,5,,4,4,,
{16}47,,6<1[8:1],5,7,,46,,,,3,,3,,,,52,,3>8[8:1],4,2,,53,,,,7,,7h[4:1],,,,
{12}2bx,4,4,3bx,5,5,4bx,6,6,5bx,7,7,
{96}2b,,,3,,,4,,6,,,,,,,,2b,,,3,,,4,,6,,,,,,,,
{96}3b,,,4,,,5,,7,,,,,,,,3b,,,4,,,5,,7,,,,,,,,
{96}4b,,,5,,,6,,8,,,,,,,,4b,,,5,,,6,,8,,,,,,,,
{1}3bx>6<3[4:13],,4,4,6<3>6b[4:13],,5,{2}5,4,
{1}3b>6<3[4:13],,4,4,6<3>6b[4:13],,{8}5,,,5,,,4,,3>1[4:1],,,,,,,,
{16}3x,4,3,4,2,5,1,6,4,5,4,5,3,6,2,7,5,6,5,6,4,7,3,8,2,1,2,1,3,4,2,5,
{16}8,7,1,6,2,5,1,8,2,7,3,6,2,1,3,8,2,4,2,4,3,5,4,6,3,5,3,5,4,6,5,7,
{16}2,1,2,1,3,8,4,7,1,8,1,8,2,7,3,6,8,7,8,7,1,6,2,5,3,4,3,4,2,1,3,8,
{16}2,4,3,5,4,6,3,5,4,6,5,7,4,6,5,7,8b,7,1,6,2,5,3,4,2b,1,3,8,4,7,5,6,
{16}8x,7,8,7,1,6,2,5,1,8,1,8,2,7,3,6,2,1,2,1,3,8,4,7,5,6,5,6,8,7,1,6,
{16}3,4,2,5,1,6,4,5,3,6,2,7,5,6,4,7,8,6,8,6,1,7,2,8,1,7,1,7,2,8,3,1,
{16}2x-6[8:1],,5,5,2-4[8:1],,7,7,2<7[8:1],,8,8,2>5[8:1],,4,4,2-6[8:1],,6,6,2-7[8:1],,7,7,2v5[8:1],,6,6,2,,8,,
{16}1b/2b,,3,3,4,,5b/6b,,7,7,8,,1/6h[4:1],,,,
{12}2x,3,4,2x/5,3,4,3x/5,4,5,3x/6,4,5,
{1}6hb[1:8]/3b-1-7-5qq8<1b[4:31],
