&title=MANA
&artist=DJ YOSHITAKA
&first=-0.154
&des=GC
&des_5=GrandChan
&des_6=GC
&lv_5=13
&lv_6=13+
&inote_5=(195){4},{16},,,,6x,4x,6x,4x,{4}6x,
{8}2/5,3,4,5,{4}6/3qq8[1:1],{8}5,5,
,,{4}E5,E6,E7,
{8}7/4,6,5,4,{4}3/6pp1[1:1],{8}4,4,
,,{4}E5,E4,E3,
{8}6,6,5,7,1,2,3,6/4<2[4:3],
,,{4}E1/B8/B1,E5/B5/B4,C,
{8}7,8,6,6,1,2,3,4h[4:1]/6h[4:1],
,,{4}5h[8:1]/3h[8:1],6h[8:1]/2h[8:1],7h[8:1]/1h[8:1],
{8}3/8,2,1,8,{4}7/2pp5[1:1],{8}8,8,
,,{4}E1,E8,E7,
{8}6/1,7,8,1,{4}2/7qq4[1:1],{8}1,1,
,,{4}E1,E2,E3,
{8}3,3,4,2,8,7,6,3/5>7[4:3],
,,{4}E1/B1/B8,E5/B4/B5,C,
{8}2,3,6/4,7,{16}1x,8x,1x,8x,1x,8x,{8}1bxw5[8:1],
,1bx,,3,4,5,6,7,
{1}Cfh[1:7]/8x<1[4:27],
,,,,,,,{4}1x/8x<1[2:3],
E2,E3,E4,
E5,E6,E7,E8,
8x<1[2:3],E2,E3,E4,
E5,E6,E7,E8,
1x>5[2:1],E4,E3,E2,
8x<4[2:1],E6,E7,E8,
1x>4[4:1],B3/B2,8x<5[4:1],B6/B7,
1x>4[4:1],B2/B3/E3,8x<5[4:1],B7/B6/E7,
3v8[8:1],4/3,{8}6<1[8:1],5,{4}5,
2v5[8:1],1/2,{8}7<4[8:1],8,{4}8,
2>8[8:3],{8}8,8<2[8:3],,1,{4}1,
7<1[8:3],{8}1,1>7[8:3],,8,{4}8,
2>5[8:1],1/2,{8}7v4[8:1],8,{4}8,
3>8[8:1],4/3,{8}6v1[8:1],5,{4}5,
3h[4:1],4,{8}6h[4:1],5,{4}5,
{2}8xp3[8:1]/7x<4[8:1],1xq6[8:1]/2x>5[8:1],
{4}7v4[8:1],8/7,{8}2>5[8:1],1,{4}1,
6v1[8:1],5/6,{8}3>8[8:1],4,{4}4,
6V82-4[8:3],{8}4,4V28-6[8:3],,5,{4}5,
3V17-5[8:3],{8}5,5V71-3[8:3],,4,{4}4,
6<1[8:1],5/6,{8}3v8[8:1],4,{4}4,
7<4[8:1],7/8,{8}2v5[8:1],1,{4}1,
7h[4:1],8,{8}2h[4:1],1,{4}1,
{2}4xp7[8:1]/3x>8[8:1],5xq2[8:1]/6x<1[8:1],
{8}3h[4:1]/5h[4:1],,,4/6,,3/7p6>7[8:7],,Cf,
,,,,,,,,6h[4:1]/4h[4:1],
,,5/3,,6/2q3<2[8:7],,Cf,
,,,,,,,,5h[4:1]/3h[4:1],
,,2/4,,1/5p4>5[8:7],,Cf,
,,,,,3,3,2xh[4:1]/4xh[4:1],
,,{4}5xh[8:1]/7xh[8:1],3xh[8:1]/4xh[8:1],5xh[8:1]/6xh[8:1],
{8}3x,3x,6x,6x,{16}4x,5x,4x,5x,4x,5x,4x,5x,
,,,,,,,,{4}2bx/8bx>4[4:1],{8}4q7[8:3],4,
,7>7[2:1],,Cf,,,,,4,
4,{4}3/5,2<7[8:1],7,
6>3[8:1],3,1v4[0.3077##0.1538]*v6[0.3077##0.1538],,
{2}8v3[8:1]*v5[8:1],{4}2V46[16:3],8,
1V75[16:3],2,3-7[8:1]/4-8[8:1],4x/3x,
6-2[8:1]/5-1[8:1],5x/6x,{8}4x<7[8:1],3,2,1x>4[8:1],
8,7,6x<1[8:1],5,4,3x<6[8:1],2,1,
8x>3[8:1],7,6,5,{4}4bx<8[4:1],{8}8q3[8:3],8,
,3<3[2:1],,Cf,,,,,1,
1,{4}2/8,3<6[8:1],6,
7>2[8:1],2,{2}4v1[8:1]*v7[8:1],
5v2[8:1]*v8[8:1],{4}3V17[16:3],5,
4V68[16:3],3,2-6[8:1]/1-5[8:1],2x/1x,
7-3[8:1]/8-4[8:1],7x/8x,{8}1/6,2,3/4,5,
4/6,3,2/7,8bxz4[8:1]/1bxs5[8:1],,8bx/1bx,,3x/6x,
{1}3xh[4:3]/6xh[4:3],
{4}1b/8b<5[4:1],5>2[4:1],2<7[4:1],7<4[4:1],
4V28[4:1],8V64[4:1],{2}4-8[16:3],
{4}1x>4[4:1],4<7[4:1],7>2[4:1],2>5[4:1],
5V71[4:1],1V35[4:1],{2}5-1[16:3],
{4}7x<4[16:3],4V68[16:3],{2}8<3[4:1],
{4}1x>4[16:3],4V28[16:3],{2}8>5[4:1],
{8}8xV64[4:1],8,{4}4>8[4:1],8<4[4:1],{8}4,4,
3,2,1,1h[8:3],{24},,,3x,4x,5x,{4}6x>8[2:1],
Cf,{8},,,,3,3,
5,5,4-2[8:1],4-6[8:1],,,,,{4}1bx/7bx,
{16}E7,B6,B5,E5,E1,B1,B2,E3,E8,B7,B6,E6,
1x,2x,3x,4x,8x,7x,6x,5x,{2}1-5[8:1],
{8}7x<4[8:1],7x,8,1,2x>5[8:1],2x,1,8,
6x<1[8:1],6x,5,4,3x>8[8:1],3x,4,5,
{4}7-3[8:1],8-4[8:1],1-5[8:1],2-6[8:1],
3-7[8:1],4-8[8:1],{2}5w1[8:1],
E
&inote_6=(195){4},{8},,4/6,{16}5,4,{4}6,
{8}3/5,4,5,6,{4}7/1h[8:3],{8}8qq4[8:3],8,
,,{4}1-5[8:1],1/7-3[8:1],2/7,
{8}1,1,8,7,{4}6/4h[8:3],{8}5pp1[8:3],5,
,,{4}2-6[8:1],2/8-4[8:1],3/8,
{8}8/1,{16}7,5,{8}6,{16}3,4,{8}2,1>8[2:1],8,1/7h[8:5],
{16},,,,,,,,2h[16:3],,,3h[16:3],,,{8}4,
5/3,{16}2,1,{8}3,{16}7,8,{8}6,5,4,3h[4:1]/5h[4:1],
,,6/4,6/4,3/7,3/7,{4}8b/2b,
{8}6/4,5,4,3,{4}2/8h[8:3],{8}1pp5[8:3],1,
,,{4}8-4[8:1],8/2-6[8:1],7/2,
{8}8,8,1,2,{4}3/5h[8:3],{8}4qq8[8:3],4,
,,{4}7-3[8:1],7/1-5[8:1],6/1,
{8}8/1,{16}2,4,{8}3,{16}6,5,{8}7,8<1[2:1],1,8/2h[8:5],
{16},,,,,,,,7h[16:3],,,6h[16:3],,,{8}5,
{16}4,5,4,5,3,6,3,6,2,7,2,7,1,8,{8}1bw5[8:1],
,1b,,2,3,4,5,6,
{1}2b/7b>6[4:27],
7h[2:1],
8h[2:1],
1h[2:1],
2h[2:1],
3h[2:1],
4h[2:1],
5h[2:1],
{2}6h[4:1]/4qq1[2:3],5h[4:1],
{4}5,5,4,4,
{2}3h[4:1]/5pp8[2:3],4h[4:1],
{4}4,4,5,5,
{2}7h[4:1]/1pp4[2:3],8h[4:1],
{4}8,8,1,1,
{2}2h[4:1]/8<5[8:1],7h[4:1]/1>4[8:1],
3h[4:1]/5<8[8:1],6h[4:1]/4>1[8:1],
{4}7<4[8:1],8/7,{8}1>4[8:1],8,{4}1,
6<1[8:1],6/4,{8}3>8[8:1],4,{4}3,
6h[4:1],{8}5,3h[4:1],,4,{4}2/5,
7<5[8:1]/8p4[8:1],8/7,2>4[8:1]/1q5[8:1],1/2,
6<1[8:1],4/6,{8}3>8[8:1],5,{4}3,
7<4[8:1],7/8,{8}1>4[8:1],8,{4}1,
{8}6/5>2[8:1],6,{4}6,{8}3/4<7[8:1],3,{4}3,
{8}1-5[8:1]/2-6[8:1],3/8,,,8-4[8:1]/7-3[8:1],1/6,,,{4}2>5[8:1],
8/2,{8}7<4[8:1],1,{4}7,
3>8[8:1],3/4,{8}5<8[8:1],4,{4}5,
3h[4:1],{8}4,6h[4:1],,5,{4}7/4,
2>4[8:1]/1q5[8:1],1/2,7<5[8:1]/8p4[8:1],8/7,
3>8[8:1],4/3,{8}5<8[8:1],4,{4}5,
2>5[8:1],2/8,{8}7<4[8:1],1,{4}7,
{8}7/8>3[8:1],7,{4}7,{8}2/1<6[8:1],2,{4}2,
4p7[8:1],6<1[8:1],{16}3,4,5,6,7,8,1,2,
{8}5h[4:1]/3h[4:1],,,4/2-5[8:1],,2/7>4[8:3],,7/3,
,,1,1,8/2,8/2,3/7,3/7,
4h[4:1]/6h[4:1],,,5/7-4[8:1],,7/2<5[0.3077##0.4615],,2/6,
,,8,8,1/7,1/7,6/2,6/2,
5h[4:1]/3h[4:1],,,4/6-1[8:1],,6/3<8[8:3],,3/7,
,,5,5,4/6,6/4,3/7,3h[4:1]/7h[4:1],
,,{4}4h[8:1]/6h[8:1],3h[8:1]/5h[8:1],2h[8:1]/6h[8:1],
{16}3,4,{8}3,{16}6,5,{8}6,{16}4,5,4,5,4,5,4,5,
,,,,,,,,{8}5b/2b,{16}3,4,{8}3,5/2-6[16:3],
,6<5[8:5],,8,,,,,8,
7,{4}4/6,4>1[8:1],5,
4<7[8:1],3,{2}2/1-6[8:1]*-5[8:1],
7/8-3[8:1]*-4[8:1],{4}8/2z6[4:1],{8}6z2[4:1],6,
,2,,8,{4}8-5[8:1]*-6[8:1],8-3[0.3077##0.1538]*-2[0.3077##0.1538],
8-4[8:1],8,{8}1-4[8:1],8,7,6-1[8:1],
5,4,3-6[8:1],2,1,8-3[8:1],7,6,
{2}5w1[8:1],{8}4b/7b,{16}6,5,{8}6,4/7-3[16:3],
,3>4[8:5],,1,,,,,1,
2,{4}5/3,5<8[8:1],4,
5>2[8:1],6,{2}7/8-3[8:1]*-4[8:1],
2/1-6[8:1]*-5[8:1],{4}1/7s3[4:1],{8}3s7[4:1],3,
,7,,1,{4}1-4[8:1]*-3[8:1],1-6[0.3077##0.1538]*-7[0.3077##0.1538],
1-5[8:1],1,6h[8:1]/4h[8:1],5h[8:1]/3h[8:1],
{8}4/5,3/6,2/7,8b<5[8:1]/1b>4[8:1],,8b/1b,,2/7,
{1}2h[2:1]/7h[1:1],
{32}1b,2,3,4,5,6,7,8,1,2,3,4,5,6,7,8,1,2,3,4,5,6,7,8,1,2,3,4,5,6,7,8,
1,2,3,4,5,6,7,8,1,2,3,4,5,6,7,8,1,2,3,4,5,6,7,8,1,2,3,4,5,6,7,8,
1,2,3,4,5,6,7,8,1,2,3,4,5,6,7,8,1,2,3,4,5,6,7,8,1,2,3,4,5,6,7,8,
1,2,3,4,5,6,7,8,1,2,3,4,5,6,7,8,1,2,3,4,5,6,7,8,{4}1,
{8}4/5<8[8:1],3,{4}2-6[8:1],{2}1w5[8:1],
{8}1/8<5[8:1],2,{4}3-7[8:1],{2}4w8[8:1],
{8}2/5,{16}3,4,{8}3,{16}6,5,{8}6,{16}3,4,{8}2,{16}6,5,
{8}7h[8:3],3,2,1h[4:1],{24},,,8,2/7,3/6,{4}4>5[8:5]/5<4[8:5],
5b/4b,{8},,,,3,3,
5,5,4-2[8:1],4-6[8:1],{2}4-8[8:1],
{4}1b/7b,{16}8,7,6,5,2,3,4,5,7,6,5,4,
1,2,3,4,5/1,6,7,8,{2}5/1w5[8:1],
{8}7-4[8:1],7,8,1,2-7[8:1],2,3,4,
5-2[8:1],5,6,7,8-5[8:1],8,1,2,
{16}3,4,3,4,2,5,2,5,1,6,1,6,8,7,8,7,
{32}1b,2,3,4,5,6,7,8,1/6b,2,3,4,5,6,7,8,1/5b,2,3,4,5,6,7,8,{4}1b/4b,
E
