&title=スーサイドパレヱド
&artist=ユリイ・カノン
&first=1.4
&des_1=SetDesigner
&des_2=SetDesigner
&des_3=SetDesigner
&des_4=SetDesigner
&des_5=apricot
&lv_5=14
&des_6=SetDesigner
&des_7=SetDesigner
&des=SetDesigner
&inote_5=(176)
{16},,,,,,,C,,,,,{4},
{8}6/1,6h[4:1]/1h[4:1],,,
{16}3,4,2,,6,5,7,,
{8}8/3,8h[4:1]/3h[4:1],
{16},,,,6,5,7,,2,1,3,,
{8}7/4,7h[4:1]/4h[4:1],,,
{16}2,1,3,,7,8,6,,
{8}5/2,5h[4:1]/2h[4:1],,,,,
7-3[8:1],,7/3,4,4h[4:1],,
{16}5qq1[4:1],4,6,,
{8}7,7h[4:1],,
{16}2,,3,4,2,,6,5,7,,8-4[8:1]/4,,1/3,,8/4,,
{8}5,5h[4:1],,
{16}6pp1[4:1],5,7,,
{8}4,3h[4:1],,8,
{16}7,5,6,,4/3,,,7/5,,,1/2,,
{8}8-4[8:1]/3h[8:1],,8/3h[8:1],,7-4[8:1]/2h[8:1],,7/2h[8:1],,
6-4[8:1]/1h[8:1],,6/1h[8:1],,8h[8:1]/5-3[8:1],,8h[8:1]/5,,
{16}2/4,,3,4,2,,1/5,,2/4,,3,4,2,,1/5,,1s5[4:1],,
{8}4,5,6,7,8,1,2,
5h[8:1]/3-1[8:1],,3/5h[8:1],,6h[8:1]/4-1[8:1],,6h[8:1]/4,,7h[8:1]/5-1[8:1],,7h[8:1]/5,,8h[8:1]/6-1[8:1],,8h[8:1]/6,,
{16}5,6,5,6,4,7,4,7,3,8,3,8,2pp5[2:1],1,2,1,
{8},4,5,6,7,8,1/8,,
{16}3,3,4,4,2h[8:1],,4h[8:1],,1h[8:1],,4-7[8:1]*-1[8:1],,,,4,,,,
{8}5h[8:1],3h[8:1],6h[8:1],4h[8:1],7h[8:1],5,,
{16}6,6,5,5,7h[8:1],,5h[8:1],,8h[8:1],,5-2[8:1]*-8[8:1],,,,5,,,,
{8}3h[8:1],8h[8:1],2h[8:1],7h[8:1],1h[8:1],8,,
{16}1,1,8,8,2h[8:1],,7h[8:1],,3h[8:1],,6-1[8:1]*-3[8:1],,,,6,,,,
{8}7h[8:1],5h[8:1],8h[8:1],3q5[4:1],,,,
{16}7,,3,4,2,,6,5,7,,3,4,2,,6,5,7,,
{8}6/5,7/8,1/2,4-8[8:1]/3,,4w8[8:1],,,,
{16}5V31[8:1]/3,,,6,5,,8-4[8:1]*-3[8:1],,,,8,,,,5,,6/2,,7/3,,8<5[8:1]/4>1[8:1],,,,8/4,
,,,2-5[16:1]/4,,,2,8-4[16:1],,,8,1,,2/5-7[8:1]*-1[8:1],,,,5,,,,2,,5/3,,6/4,,7h[8:2]/5,,8x,,8x,,
{16}3,,3-7[8:1],,,,7-3[8:1],,,6,6,,5-1[8:1]*-2[8:1],,,,5,,,,
{8}8,7/3,6/2,5<8[8:1]/1>4[8:1],,5/1,,
{16}6,5,6,,3,4,3,,7,5,7,,2,4,2,,5/1,6/2,7/3,8/4,,,5/1,6/2,7-3[8:1]/3,8/4,,,1w5[8:1],,,,,,,,8>3[8:1]/2,,,
{16}7,8,,5-2[8:1]*-8[8:1],,,,5,,,,1,,2/6,,7/3,,8<5[8:1]/4>1[8:1],,,,8/4,,,,
{16}4/2>5[16:1],,,2,8-4[16:1],,,8,1,,2-6[8:1]*-5[8:1]/5,,,,2,,,,7,,6/4,,5/3,,4/2h[4:1],,1x,,1x,,
{8}6,6-2[8:1],,
{16}2-6[8:1],,,3,3,,4-7[8:1]*-8[8:1],,,,4,,
{8},1,2/6,3/7,4>1[8:1]/8<5[8:1],,8/4,,
{16}3,4,3,,6,5,6,,2,4,2,,7,5,7,,
8/4,7/3,6/2,5/1,,,8/4,7/3,6/2-6[8:1],5/1,,,,,,,
{8}5h[8:1]/4,,6h[8:1]/4,3,2/5h[8:1],,6h[8:1]/3,2,1-4[8:1]/5h[8:1],,1/6h[8:1],,1-3[8:1]/5h[8:1],,1/6h[8:1],,
{8}4h[8:1]/5,,3h[8:1]/5,6,7/4h[8:1],,3h[8:1]/6,7,8-5[8:1]/4h[8:1],,8/3h[8:1],,
4,5,7/2,,
4pp7[2:1]/3,,,2,2,,1,,5qq2[2:1]/6,,,7,7,8,8,,
{12}3,4,3,6,5,6,2,4,3,7,5,6,1s5[8:3],1,,7,,6,6h[4:1],,,
{8}4,3,2/4pp8[2:1],,,1,1,,2,,
7/5-1[8:1],,7,7,3,
{16}6,4,8,,,,
{8}4/3,2,6/5,7,5/3,1,6/4,8,
{16}2,4,3,4,1,5,4,5,8-4[8:1],6,5,6,8,,,,
6,6,4,4,5,5,3,3,4,,5/3,,6/4,,7h[4:1]/5,,,,5,5,7h[8:1],,1,1,7h[8:1],,3,3,5,4,5,,
3,3,5,5,4,4,6,6,5,,4/6,,3/5,,2h[4:1]/4,,,,4,4,2h[8:1],,8,8,2,,6/5,,,,6/5,,2/4,,2/4,,8,1,8,,7/5,,1,8,1,,2h[4:1]/4,,,,
{8}5,6/4,3,4/2,6,7/5,4,
{16}6,5,6,5,7,4,7,4,8,3,8,3,1,2,1,2,
{32}8,7,6,5,4,3,2,1,8,7,6,5,4,3,2,1,
{8}8/4,7/3,6/2,5/1,
8h[4:3]/4h[4:3],,,,,,,1h[8:7]/3h[8:7],,,,,,,,,7h[4:3]/5h[4:3],,,,,,,2qq7>3[4:3]/4,,,,,,,,5,5h[2:1],,6-2[8:1],,6,,,4/3h[8:5],,2,2-6[8:1],,2,,4/5,,
3b/2x,3b,3b,3b,6/4,5,4/2,3,
{16}8/4,7/3,6/2,5/1,,,8/4,7/3,6/2,5-1[16:1]/1,,,
{8}5w1[8:1],,,,
{16}4V68[8:1]/6,,,3,4,,1-5[8:1]*-6[8:1],,,,1,,,,4,,3/7,,2/6,,1>4[8:1]/5<8[8:1],,,,1/5,
,,,7-4[16:1]/5,,,7,1-5[16:1],,,1,8,,7/4-2[8:1]*-8[8:1],,,,4,,,,7,,4/6,,3/5,,2h[8:2]/4,,1x,,1x,,
{16}7,,7-3[8:1],,,,3-7[8:1],,,4,4,,5-1[8:1]*-2[8:1],,,,5,,,,
{8}8,7/3,6/2,5<8[8:1]/1>4[8:1],,5/1,,
{16}6,5,6,,3,4,3,,7,5,7,,2,4,2,,4/8,3/7,2/6,1/5,,,4/8,3/7,2V48[4:1]/6,1/5,,,
{8}8w4[8:1]/2,,,,
7/1-6[8:1],
{16},2,
{8}1-5[8:1],4>1[8:1],1,4,,8,5/1,6/2,3h[4:1]/7h[4:1],,
{48},2/6,5/1,4/8,,,,,,,,,
{16}2-6[16:1],,,2,4-8[16:1],,,4,3,,2<7[8:1]*p6[8:1],,,,2,,,,
{8}5,6/4,5/3,2h[4:1]/4,1x,1x,6,6v3[8:1],,
{16}3v8[8:1],,,1,1v6[8:1],,
{8}2-5[8:1],1,2,,
6,7/3,8/4,1h[4:1]/5h[4:1],,
{48},8/4,7/3,6/2,,,,,,,,,
{16}3,3,4,,6,6,5,,2,2,4,,7,7,5,,
{16}8/4,7/3,6/2,5/1,,,8/4,7/3,6/2,5/1,,,2-6[8:1],,,,
{8}2-4[8:1],5,2-7[8:1],8,2-5[8:1],4,2<7[8:1],1,2>5[8:1],4,2w6[8:1],8,2,,8-3[8:1]/1,,
8-5[8:1],5,8-4[8:1],2,8<5[8:1],5,8-2[8:1],1,8-4[8:1],6,8w4[8:1],1,8,,
7/1-5[8:1],,8-6[8:1],7,2-4[8:1],1,5-8[8:1],6,2-6[8:1],3,7-4[8:1],8,3-8[8:1],2,6-2[8:1],5,4,3,
{16}7,5,7,5,8,1,8,1,4,3,4,3,6,2,6,2,5/1,6/2,7/3,8/4,,,5/1,6/2,7/3,8/4,,,7-4[8:1],,,,7-2[8:1],,1,1,7,,5,5,6,4,8,,7-3[8:1]/1-5[8:1],,8/2,,
7/1,,,,6h[4:1],,,,4pp8[4:1],5,3,,2,,2h[4:1],,,,7,,6,5,7,,3,4,2,,5/1,,4/8,,
5/1,2/6,3/7,8/4,,,5/1,2/6,3/7,8/4,,,5/1,2/6,3/7,8/4,,,,,,,,,
E
