&title=【初音ミク】削去、
&artist=【r-906】
&first=0
&des_5=憶え也 其の情けこそ 彼の時は
&lv_5=13+
&des=憶え也 其の情けこそ 彼の時は
&inote_5=(174){4},,
{8},
{24},2,3,
{4}4pp1[4:7],,,{8},7,,,6,,7,,8,
{24},8,7,
{4}6qq5[4:7],,,{8},2,,,3,,2,,1,
{24},1,2,
{4}3pp8[4:7],,,{8},6,,,5,,6,,7,
{24},7,6,
{4}5qq4[4:7],,1h[4:1],,8h[4:1],,1h[4:1],{8},
{24},1,2,
{4}3qq5[4:7],,,{8},7,,,6,,7,,8,
{24},8,7,
{4}6q1[4:7],,,{8},3,,,4,,3,,2,
{24},2,3,
{4}4qq8[4:7],,,{8},6,,,5,,6,,7,
{24},7,6,
{4}5>3V58[4:6],,,,,,{24},,,,,B2,{4},
{8}3/5,,2,4,3,5,3,{24}7,6,5,
{4}4h[4:1],3h[4:1],6h[4:1],5,
{8}6/4,,7,5,6,4,6,{24}8,1,2,
{4}3h[4:1],4h[4:1],1h[4:1],8,
{8}7/1,,6,8,7,1,7,{24}1,2,3,
{4}4h[4:1],3h[4:1],2h[4:1],1,
{8}2/8,,3,1,2,8h[4:1],2,{24},7,6,
{4}5-8[6:1],{8}5/4h[8:1],{24},3,2,{4}1-4[6:1],
{4}1/8h[8:1],
{8}3/5,,2,4,3,5,3,{24}7,6,5,
{4}4p7[8:1],3>8[8:1],4p7[8:1],,
{8}6/4,,7,5,6,4,6,{24}8,1,2,
{4}3>8[8:1],4p7[8:1],3>8[8:1],,
{8}7/1,,6,8,7,1,7,{24}1,2,3,
{4}4p7[8:1],3>8[8:1],4p7[8:1],,
{8}2/8,,3,1,2,8<5[8:1],2,1/8,,3,4,2,6,5,7b,,
{8}5,5s1<8z4[4:5],,,,,,{1},
{8}1-4<5-8>1[4:5],1,1,,,,,{4},,,C,{8},
{8}7-3[4:6]/3,7/3,7/3-7[4:5]*-7[4:5],,,,,,{1},
{8}2z6[4:5]b/6,2/6,2/6-2[1:1]*-2[1:1],,,,,,,{4},,,{8},
{8}4V28[4:6]/8,4/8,4/8V64[4:5],,,,,,{1},
{8}1>5[4:5]/5,1/5,1/5p1[1:1],,,,,,,{4},,C,{8},
{8}3p7[4:6]/7,3/7,3/7p3[4:5],,,,,,{1},
{8}4<7[2:1]/8>3[2:1],4/8,4/8,,,,,,
{24},2x/5x,3x/6x,
{1}4xh[1:1]/7x,{24}3,2,1,
{8},6,8,7,1,7,{24}8,1,2,
{4}3>8[6:1],4p7[6:1],3>8[6:1],5xh[4:1],{24}6,7,8,
{8},2,4,3,5,3,{24}4,5,6,
{4}7q4[6:1],8>3[6:1],7q4[6:1],8xh[4:1],{24}1,2,3,
{8},7,5,6,4,6,{24}1,2,3,
{4}4p7[6:1],3>8[6:1],4p7[6:1],5xh[4:1],{24}6,7,8,
{8},2,8,3,5<8[8:1],4,4/5,,2,1,3,6,4,5b,,
{8}3/4,3/4,,,,4p7[2:1],,,8>3[4:1],,,,,7,,
{8}5/6,5/6,5/6,,,,4s8[2:1],,,4z8[4:1],,,,,3,,
{8}1/2,1/2,1/2,,,,7-2[2:1],Ch[8:1],,,1-4[4:1],,,,8,,
{8}7/8,7/8,7/8,,,,6p4[2:1],,,3q1[4:1],,,,,5,,
{8}4/5,4/5,4/5,,,1,1,,{32}B6,B7,E8,,{8},,,,,,C,
{8}1/8,1/8,1/8,,,,1pp3[2:1],,,7<5[4:1],,,,,2,,
{8}2/4,2/4,2/4,,,,1pp3[2:1],,,7-4[4:1],,,,,3,,
{8}7/5,7/5,7/5,,,,7>6[8:5],,,3xpp3[4:1],,,,,
{8}7x,8x,1x,3x,4x,5x,
{8}7x,8x,1x,3x,4x,5x,
{8}7x,8x,1x,3x,4x,5x,
{8}7x,8x,1x,3x,4x,5x,
{8}7x>2[8:1],8x,,3x,4x,5x,
{8}7x>2[8:1],8x,,3x,4x,{16}5x,Chf[8:1],,,
{8}7x>6[8:10],,,,,,,,,,,,
{8}7x>6[8:10],,,,,,,,,,,,
{8}7x>6[8:12],,,,,Chf[8:1],,,,,,,,,
{8}7x>6<7>6[8:18],,,,,,,,,,,,,,,,,,,,
{8}7x>6<7>6[8:19],,,,Chf[8:1],,,,,,,,,,
,,,,,,
{24}E5,E4,E3,2xbh[8:9],,,{8},,,,,,,,{24},,E3,E4,E5,,
{8}2x-7b[8:1]*-7[8:1],,,,
{8}8x>3[8:1],7,8,7q4[8:1],8,7,
{8}8>3[8:1],7,8x,7q4[8:1],8x,7,2xq6[8:1],,2x/8,,
{8}2x>5[8:1],1,2,1q6[8:1],2,1,
{8}2>5[8:1],1,2x,1q6[8:1],2x,1,4xw8[8:1],,4x,,
{8}2-4[8:1]/6,,2/6-8[8:1],,2>4[8:1]/6,,2/6<8[8:1],,2h[4:1]/6,,
{24}3,4,5,6,,,{8}6v1[8:1]/2v5[8:1],,2/6,,
{8}4/8,,2,8,1,6h[4:1],7,{24},5,4,
{4}3-8[6:1],{8}4h[8:1]/3,{24},5,6,{4}7-4[8:1],{8}8xh[16:1]/7,8xh[16:1],
{8}4xp7[8:1],3,4,3>8[8:1],4,3,
{8}4p7[8:1],3,4x,3>8[8:1],4x,3,6xq2[8:1],,6x/4,,
{8}6x<1[8:1],5,6,5q2[8:1],6,5,
{8}6x<1[8:1],5,6x,5q2[8:1],6x,5,8xw4[8:1],,8x,,
{8}2/6-1[8:1],,2-5[8:1]/6,,2/7-1[8:1],,2>5[8:1]/7,,6h[4:1]/2,,
{24}7,8,1,2,,,{8}6-1b[8:1]/2-5[8:1],,2/6,,
{8}4/8,,7,1,8,2h[4:1],1,{24},3,4,
{4}5-2[6:1],{8}5/6h[8:1],{24},7,8,{4}1-6[6:1],{8}1/2xh[16:1],2xh[16:1],
{8}3x>8[8:1],4,3,7q4[8:1],8,7,
{8}3>8[8:1],4,3x,7q4[8:1],8x,7,2xq6[8:1],,2x/8,,
{8}2x>5[8:1],1,2,6p1[8:1],5,6,
{8}2>5[8:1],1,2x,6p1[8:1],5x,6,4xw8[8:1],,4x,,
{8}2-4[8:1]/6,,2/6-8[8:1],,2>4[8:1]/6,,2/6<8[8:1],,2h[4:1]/6,,
{24}3,4,5,6,,,{8}6p2[8:1]/2>6[8:1],,2/6,,
{8}1/7,,2,8,1,7h[4:1],1,{24},6,5,
{4}4-1[8:1],{8}4/5h[8:1],{24},6,7,{4}8-5[8:1],{8}8/1xh[16:1],1xh[16:1],
{8}7x<4[8:1],8,7,3q8[8:1],4,3,
{8}7<4[8:1],8,7x,3q8[8:1],4x,3,6xq2[8:1],,6x/4,,
{8}6x<1[8:1],5,6,2p5[8:1],1,2,
{8}6<1[8:1],5,6x,2p5[8:1],1x,2,8xw4[8:1],,8x,,
{8}2/6-1[8:1],,2-5[8:1]/6,,2/7-1[8:1],,2>5[8:1]/7,,6h[4:1]/2,,
{24}7,8,1,2,,,{8}6-1[8:1]/2-5b[8:1],,2/6,,
(174){8}8,,{8}1>4[4:1],1,7,7,8<5[4:1],8,2,2,1,1,
{24}1b,2,3,4,5,6,7,8,1,2,3,4,
{16}6bx,5,6,5,7,,3,4,3,4,2,,
{16}6,5,6,5,7x,,3,4,3x,4,2,,
{16}6x,7,8,1,8x,7,6,,
{16}3x,4,3,4,2,,6,5,6,5,7,,
{16}3,4,3,4,2x,,6,5,6x,5,7,,
{16}3x,2,1,8,1x,2,3,,
{16}7x,5,6,5,6,,2,4,3,4,3,,
{16}7,5,6,5,6x,,2,4,3x,4,3,,
{16}5x,6,7,8,7x,6,5,,
{16}2x,4,3,4,3,,7,5,6,5,6,,
{16}2,4,3,4,3x,,7,5,6x,5,6,,
{24}2x,3,4,5,6,7,8x,1,2,3,,,
{16}6x,5,7,5,6,,3,4,2,4,3,,
{16}6,5,7,5,6x,,3,4,2x,4,3,,
{16}8x,7,6,5/4,3x,2,1,,
{16}3x,4,2,4,3,,6,5,7,5,6,,
{16}3,4,2,4,3x,,6,5,7x,5,6,,
{16}1x,2,3,4/5,6x,7,8,,
{16}7x,5,6,5,6,,2,4,3,4,3,,
{16}7,5,6,5,6x,,2,4,3x,4,3,,
{16}5xq1[17.4#5:1],6p2[6.5#64:1],7/8,1x,2,,,,
E
