&title=ハッピーシンセサイザ
&artist=YUME YUME JUMP!(日野森志歩、日野森雫、白石杏、宵崎奏)
&first=0.01
&des=Tane
&lv_5=13
&inote_1=
&inote_5=(127){1},
{12}3h[12:1],7h[12:1],5h[12:1],1h[12:1],3h[12:1],7h[12:1],{8}1,,{16}1,8,1,8,
{8}1/2z6[4:1],,,,
2z6[4:1]*z6[4:1],,,,
{8}2z6[4:1],,,,
2z6[4:1]*z6[4:1],,,,
{8}2<3[2:1],,,,
,,,,
{16}6,5,,3,
4,,72,,
5,4,5,4,
5,4,5,,
{8}2v5[8:1]/8v5[8:1],,28,,
{16}47,,6,5,
,3,4,,
{8}7v4[8:1]/1v4[8:1],,71,,
{16}52,,3,4,
,2,5,,
{8}1-5[8:1]/5^7[8:1],,15,,
{16}47,,6,5,
,4,3,,
{8}4-8[8:1]*-8[8:1],,4,,
{16}7,8,,78,
,1,6,,
{8}7v4[8:1]/1v4[8:1],,71,,
{16}52,,3,4,
,6,5,,
{8}2v5[8:1]/8v5[8:1],,28,,
{16}47,,6,5,
,7,4,,
{8}8-4[8:1]/4^2[8:1],,84,,
{16}52,,3,4,
,5,6,,
{8}5-1[8:1]*-1[8:1],,5,,
{16}2,1,,12,
,8,3,,
{8}24,3,57,6,
{16}2/4-8[8:1],2,,,
,,,,
{8}75,6,42,3,
{16}7/5qq3[8:1],7,,,
,,,,
{8}24,3,57,6,
{16}2/4^7[8:1],2,,,
,,,,
{16}13,,2,2,
,8,8h[4:2],,
3,,5,,
3,,5,,
{8}75,6,42,3,
{16}7/5-1[8:1],7,,,
,,,,
{8}24,3,57,6,
{16}2/4v6[8:1],2,,,
,,,,
{8}75,6,42,3,
{16}7/5^2[8:1],7,,,
,,,,
{16}86,,7,7,
,1,1h[4:2],,
6,,4,,
6,,4,,
{16}3,4,3,4,
25,,6,,
47,,3,,
25,,6,,
{16}6,5,6,5,
74,,3,,
52,,6,,
74,,3,,
{16}3,4,3,4,
25,,6,,
47,,3,,
25,,6,,
{16}6,5,6,5,
7,,7h[4:1],,
2,,5h[4:1],,
2,,7,,
{16}7,4,7,4,
56,,4,,
34,,5,,
56,,3,,
{16}2,5,2,5,
43,,5,,
65,,4,,
43,,6,,
{16}7,4,7,4,
56,,4,,
34,,5,,
56,,3,,
{16}3,4,3,4,
2,,2h[4:1],,
7,,4h[4:1],,
7,,2,,
{8}12,45,78,45,
{16}1/2-5[8:1],,1,1,
,,6,,
{8}87,54,21,54,
{16}8/7-2[8:1],,1,1,
,,3,,
{8}12,45,78,45,
{16}1/2,,34,,
56,,78,,
{8}2-4[8:1],1-5[8:1],2z6[4:1]*z6[4:1],,
,,,,
{8}87,54,21,54,
{16}8/7-4[8:1],,8,8,
,,3,,
{8}12,45,78,45,
{16}1/2-7[8:1],,8,8,
,,6,,
{8}87,54,21,54,
{16}8/7,,65,,
43,,21,,
{8}7-5[8:1],8-4[8:1],7s3[4:1]*s3[4:1],,
,,,,
{8}3p7[8:1]/8p4[8:1],,38,,
{16}68,,8,7,
,7,8,,
{8}6q2[8:1]/1q5[8:1],,16,,
{16}31,,1,2,
,2,1,,
{8}3p7[8:1]/8p4[8:1],,38,,
{16}68,,8,7,
,,78,,
{8}16,2,38,7,
{16}1h[8:3]/6,,7,7,
,4,4,,
{8}2q6[8:1]/5q1[8:1],,52,,
{16}31,,1,2,
,2,1,,
{8}7p3[8:1]/4p8[8:1],,74,,
{16}68,,8,7,
,7,8,,
{8}2q6[8:1]/5q1[8:1],,52,,
{16}31,,1,2,
,,21,,
{8}83,7,61,2,
{16}8h[8:3]/3,,2,2,
,5,5,,
{16}6,3,5,2^5[8:1],
,4,,2,
,7,7-4[8:1],4,
8,,7,,
{16}1,1-5[8:1],5,8,
,1,,8h[16:7],
,,2,,
6,,4,,
{16}3,6,4,7^4[8:1],
,5,,7,
,2,2-5[8:1],5,
1,,2,,
{16}8,8-4[8:1],4,1,
,8,,1h[16:7],
,,7,,
3,,5,,
{8}4h[8:1]/5h[8:1],,4h[8:1]/5h[8:1],,
{16}4-1[8:1]/5-8[8:1],,4,5,
,,,,
{8}28,45,71,45,
{16}8/2-5[8:1],,1,8,
,7,6,,
{8}71,54,28,54,
{16}1/7-2[8:1],,8,1,
,,3,,
{16}1^6[8:1]/2,,3,3,
,4,,5,
{16}5^2[8:1]/6,,6,,
7,,8,,
{8}2-6[8:1],1-5[8:1],2z6[4:1]*z6[4:1],,
{16},,1,1,
,8,8,,
{8}71,54,28,54,
{16}1/7-4[8:1],,8,1,
,2,3,,
{8}28,45,71,45,
{16}8/2-7[8:1],,1,8,
,,6,,
{16}8^3[8:1]/7,,6,6,
,5,,4,
{16}4^7[8:1]/3,,3,,
2,,1,,
{8}7-3[8:1],8-4[8:1],7s3[4:1]*s3[4:1],,
{16},,8,8,
,1,1,,
{8}8p4[8:1],3p7[8:1],8,3,
{16}6,,78,78,
,16,16,,
{8}1q5[8:1],6q2[8:1],1,6,
{16}3,,21,21,
,83,83,,
{8}8p4[8:1],3p7[8:1],8,3,
{16}6,,78,78,
,16,16,,
{8}16,2,38,7,
{16}1h[8:3]/6,,8,8,
,3,3,,
{8}5q1[8:1],2q6[8:1],5,2,
{16}1,,12,12,
,38,38,,
{8}4p8[8:1],7p3[8:1],4,7,
{16}8,,87,87,
,61,61,,
{8}5q1[8:1],2q6[8:1],5,2,
{16}1,,12,12,
,38,38,,
{8}83,7,61,2,
{16}8h[8:2]/3,,,,
2q6[8:1],,,,
{8}2b/4pp4[4:5]*qq4[4:5],,,,
,,,,
