&title=セレナーデ
&artist=なとり
&first=0.69
&des=HPjun
&lv_5=13+
&inote_5=(137)
{1},
{16}4,5,,36,,B2h[16:3]/B3h[16:7]/B7h[16:5]/B6h[16:9]/C,,,,,,,,,,,
{16}2b-5[8:1],,3,,2/8-4[8:1],,7,,1-5[8:1]/8,,2,,1/7p3[8:1],,6,,1-5[8:1]/7,,2,,1/6-8[8:1],,7,,2-5[8:1]/6,,3,,2/7-3[8:1],,6,,1q5[8:1]/7,,2,,8<6[8:1]/1,,7,,4-1[8:1]/8,,3,,45,,6,,B1/B2/E2,,,,E7/B7,,,,E4,,,,,,,,
{4}4/6<2p6b[1:1],4,4,4,4,4,3,3,2qq7>2[2:3]/5,5,5,5,5,5,6,7,8<5b[4:1],5-1[4:1],4,3,1>4-8b[2:1],4,5,6,7-3[8:1],3,4-8[
8:1],5>7[4:1],,,
{32}E1,E2,E3,E4,E5,E6,E7,E8,1x-5[8:1],2x,3x,4x,5x,6x,7x,8x,
{8}1x<6[8:1],,13,,15,3,4-8[8:1],4,4>1[8:1]/5,,24,,3,3,7-3[8:1],6,2-6[8:1]/7,,28,,8<4[8:1],3,2-7v2b[2:1],1,2,,,,,,6,5,4qq4b[4:1],4pp4[4:1],,,,,,,35,2,46,7,8<4[8:1],2,1<7v2p6-3-5[1:1]*<7v2p6-3-5[1:1],1,,,,,,,,,6,,7,,8w4[8:1],,,,7-5[8:1],5-1[8:1],7p3[4:1],,,,,,3-5b[8:1],5-2b[8:1],3v8b[4:1],,,,,,8<3[4:1],,3<8[4:1],,8V63[4:1],,3V58[4:1],,8<4[4:1],,4>8[4:1],,8V24b[4:1],,4V68b[4:1],,8<5[4:1],,3,2,1-5[8:1],,1,6,6,7,7,8,8-4[8:1],,18,,2/7-3[8:1],,17,,26,,8w4[8:1],,,,,,
{32}1x,2x,3x,4x,5x,6x,7x,8x,1x-5[8:1],2x,3x,4x,5x,6x,7x,8x,1xbw5[8:1],,,,,,,,1,,,,,,,,
{16}46,7,,8<3[4:1],,,8,,1-4[8:1]*-5[8:1],,,,1,,,,24,1,,1-5[8:1],,,1,,
{8}6,7,8-4[8:1],4,3,2,1-6[8:1],6,5-8[8:1],,45,,
{16}2,8,,8,1w5[8:1],,1,,1b-5-2[8:1]*-5-8[8:1],,,,1,,,,1,7,,7,3v8[8:1],,3,,3<1[4:1],,,,35,,,,6,6,,4,,,3,,
{16}2-7[8:1],,,6-1[8:1],,,A7f/E8/B7,,,A1f/E1/B1,,,1-5[8:1],,,8-4[8:1],,,,,3,,2,,,,5,,6,,3,,4-6p2b[4:1],,,,,,,,
{32}7-3[16:1],6,5,,,,,,4v1b[16:1],5h[1:0],6h[1:0],,,,,,8-4[16:1],7,6,,,,,,3-8b[16:1],2h[1:0],1h[1:0],,,,,,7v2[16:1],6,5,,,,,,3-7b[16:1],4h[1:0],5h[1:0],,,,,,6,5,4,,,,,,36,,,,,,,,2-6b[16:1],3h[1:0],4h[1:0],,,,,,5v8[16:1],4,3,,,,,,1-5b[16:1],2h[1:0],3h[1:0],,,,,,6-1[16:1],7,8,,,,,,2v7b[16:1],3h[1:0],4h[1:0],,,,,,6-2[16:1],5,4,,,,,,3h[1:0],4h[1:0],5h[1:0],,,,,,63,,,,,,,,3-7b[16:1],2h[1:0],1h[1:0],,,,,,8v5[16:1],1,2,,,,,,4-8b[16:1],3h[1:0],2h[1:0],,,,,,7-4[16:1],6,5,,,,,,3v6b[16:1],2h[1:0],1h[1:0],,,,,,7-3[16:1],8,1,,,,,,3h[1:0],4h[1:0],5h[1:0],,,,,,72,,,,,,,,
{8}46,8,35,1,36,37,
{2048}4qq1b[4:3],
{8}8qq5[4:3],15,48,,,,,,,,
{16}7b-4[8:1]/2,,6,,7/1-5[8:1],,2,,8-4[8:1]/1,,7,,8/2q6[8:1],,3,,8-4[8:1]/2,,7,,8/3-1[8:1],,2,,7-4[8:1]/3,,6,,7/2-6[8:1],,3,,2/8x-5[8:1],,8x-3[8:1],,8x-4[8:1],,8x-2[8:1],,8x-6[8:1],,8x-4[8:1],,8x<5[8:1]*-5[8:1],,8x,,8x>3[8:1]*-3[8:1],,,,8x-4[8:1]*w4[8:1],,,,8x,,,,B3h[4:1]/B2h[4:1]/E3h[4:1]/B6h[4:1]/B7h[4:1]/E7h[4:1]/Ch[4:1],
