&title=涙のハリケーン
&artist=星井美希(CV:長谷川明子)
&first=0
&des=ぴちネコのハリケーン
&clock_count=4
&lv_5=13+
&inote_5=(148){1},
{1}1-4[8:11]/5,{4},,,{8},4/8,
{1}4-1[4:3]/8,{16}7,,E7,E6,2,,E3,E4,{8}8,8,1/7,1/7,
{4}2x/6-3[1:1],B2/E2,,B2/E2,,B2/E2,,{8}B2/E2,4,
{4}4-7[2:1]/1x,B3/E3,,B3/E3,{16}7,,E7,E6,2,,E3,E4,{8}8,8,{16}1,7,1,7,
{16}2b/E7f,,1,8,,3h[8:1],,4h[8:1],,1,,1,,8,2,,
5/3,,1,8h[8:1],,5h[8:1],,6,4-1[8:1],,3,,6/4,,7,,
6/2,,1,8,,3h[8:1],,4h[8:1],,1,,1,,8,2,,
7b-4[8:1]/3b,,6,5,,3,,1,1b-5[8:1],,4/2,,1,,6,,
7b/2b,,8,1,,6h[8:1],,5h[8:1],,8,,8,,1,7,,
4/6,,8,1h[8:1],,4h[8:1],,3,5-8[8:1],,6,,3/5,,2,,
3/7,,8,1,,6h[8:1],,5h[8:1],,8,,8,,1,7,,
{8}2b-5[8:1]/6b,2,7,7,5b/8b-4[8:1],8,2h[16:1],2h[16:1],
{8}5h[4:1],4,3h[4:1],4,5h[4:1],4,3h[4:1],4,5V71[4:1],5,1s5[8:3],,4,3,2,,
4h[4:1],5,6h[4:1],5,4h[4:1],5,6h[4:1],5,4>1[8:1],4,5,6,7<4[8:1],7,8,1,
2-4[12:1]/4-6[12:1],,,,5-2[8:1]/8-5[8:1],,,,1>4[8:1],1,8<5[8:1],8,4-7[8:1],4-1[8:1],,,
8,{16}7h[16:3],,,6h[16:3],,,5h[16:3],,,4h[16:3],,,{8}3,3,{16}2h[16:3],,,1h[16:3],,,8h[16:3],,,7h[16:3],,,{8}1x,
2h[4:1],4,5h[4:1],3,2h[4:1],4,5h[4:1],3,2<6[4:1],2,6>2[4:1],,1,8,7,,
7h[4:1],5,4h[4:1],6,7h[4:1],5,4h[4:1],6,7v4[8:1],8,1,2,3v6[8:1],2,1,1,
1-3[12:1]/5-7[12:1],,,,8-4[8:1]/4,,,1h[4:1],,6,7>2[8:1],7,5-2[8:1],5-8[8:1],,,
1,{16}2h[16:3]/8,,,4,,,3/5h[16:3],,,4,,,{8}6,6,{16}7/5h[16:3],,,4,,,{4}2/6h[4:1],4>6[4:3],
7,6,5,4h[4:1],{8}3,4,{4}3h[4:1],5-8[8:1],4/5>7[4:3],
8,7,6,5h[4:1],{8}4,5,{4}4h[4:1],5-2[8:1],5<3[4:3]/6,
2,3,4,5h[4:1],{8}4,4,{4}5,4/6,3/7z3z7[1:1],
1h[1:1],,,,,,{16}5-1b[8:1],,6,6,{4}5b,
{8}2-5[8:1],1,8-3[8:1],7,6-1[8:1],5,4-7[8:1],3,
2-5[8:1],1,8-3[8:1],6,5w1b[8:1],,Cf,,
8p4[8:1]/2,3,28,1,8q4[8:1]/4,5,6/8,7,
8^5[8:1]/5^2[8:1],4,8/5pp1b[16:4],,A5f/D5/D6,2x,2x,3,
4-1[8:1],5,6-3[8:1],7,8-5[8:1],1,2-7[8:1],3,
4-1[8:1],5,6-3[8:1],7,8,,1,1,
{16}2/8,,6,5,6,,2,4,2,,7,1,8,,8,,
1/7,,2,4,3,,6,5,7,,2,8,1,,1,,
2/8,,6,4,7,3,8,2,5,3,6,2,7,,1/8,,
{8}6bh[8:1],5,2bh[8:1],1,3/4b,1b/7,4b/5,
{96}2pp5>5[8:27]*pp5>5[8:27]/8b$$,8!qq8[8:8],{48}B8/B2,Cf,B5,E6/E5,,
{1},{4},,,{8},{16}A8,D8,{1}A7,{4},,,{16},,D6,A5,
{4}3h[1:1]`D5,B2/E3,,B2/E3,
4h[4:3],B2/E3,,
{16}B2/E3,,D4,A4,{4}6h[4:3]`D5,B7/E7,,B7/E7,
{8}2b/4,3,5/7b,6,{16}1b/4,,3,,8b,5,6,5,
7-5-8-4-1-3[2:1],,8,,1,,2h[8:5]/E8f/B7/B8,,,,,,,,,,
{8}4-6[12:1],,2,2-4[12:1],,8,{4}8-4[8:1],
{8}7/8,,5-7[12:1],5,3-5[12:1],3,{4}1-5[8:1],
{8}1/2,3,4/5,6,7/8,1/8,{16}2,1,2,1,
3-1-4-8-5-7[2:1],,4,,5,,6h[8:5]/E4f/B3/B4,,,,,,,,,,
{12}1x,2x,3xh[12:2],4x,5x,6x,2x,3x,4xh[12:2],5x,6x,7x,
{8}8xV61-5[3:1]/1x,2,3,4h[8:3]/E8f/B7/B8,,,5,6,
{8}17,17,28,28,{16}3,3,4,4,5,5,6,6,
{4}1-4[8:13],,,,,,,,5-8[8:13],,,,E4,,E2,,
3-1[8:1],A4,5-3[8:1],A6,7-5[8:1],A8,1-7[8:1],A2,
4-1[8:1],4/E7,8-5[8:1],8/E3,3-6[8:1],3/E1,7-2[8:1],7/E5,
{16}4b,3,2,1,8,7,6,5,
{24}4b,3,2,1,8,7,6,5,4,3,2,1,
{32}8b,7,6,5,4,3,2,1,8,7,6,5,4,3,2,1,8,7,6,5,4,3,2,1,
{8}8/Cf,,
{8}7-4[8:1],8,1-6[8:1],2,3-8[8:1],4,5-2[8:1],6,
7-4[8:1],8,1-6[8:1],3,4w8b[8:1],,Cf/B4/B8,,
7^4[8:1]/3,1,73,1,7/3^8[8:1],5,73,5,
1^4[8:1]/4^7[8:1],6,1/4-8-2-5b[16:4],,A4f/D5/D4,7x,7x,6,
5-1[8:1],4,3-7[8:1],2,1-5[8:1],8,7-3[8:1],6,
5-1[8:1],4,3-7[8:1],2,1,1,{8}8,8,
{16}28,,3,4,2,,7,1,7,,3,5,4,,6,,
57,,2,1,2,,7,5,6,,3,3,4,,1,,
6,8,5,1,4,2,1,3,8,4,7,5,6,,18,,
{8}3b/4,3,8/7b,7,6b/4,2b/1,5b/3b,{48}8b/7b,E8,E7/E1,E6/Cf/E2,E5/E3,E4,
E
