&title=World Fragments III
&artist=xi
&first=0.0333
&des_1=KoYi.
&des_2=KoYi.
&des_3=KoYi.
&des_4=KoYi.
&lv_4=13
&des_5=KoYi.
&lv_5=14+
&des_6=KoYi.
&des_7=KoYi.
&des=KoYi.
&demo_seek=76
&inote_4=(200){1},
{4},,2,3,
4-8[2:1],,,,
5-1[2:1],,,,
2-4v5-7[2:1]/7-5v4-2[2:1],,,,
{16}D3,D2,D1,D8,D7,D6,D5,D4,,,,,6,5,6,5,
7,,,,3,4,3,4,2-6[8:1],,,,8-4[8:1],,,,
{32}4bx>5[2:3]b,,Cf,,,,,,{4},{2},{1},
{4},3,,4,
5,,6,,
7-4[4:3],,,,
3-8[4:3],,,,
5-8[2:1]*-2[2:1],,,,
4h[2:1],,8-5[8:1]*-3[8:1],,
6h[4:3]/2,2,2,2,
Ch[4:3]/2,2,2,2,
4h[4:3]/2,2,2,2,
8h[2:1]/2,2-6[8:1],,,
{8}45,3,13,,45,6,68,,
34,2,28,,56,7,17,,
{12}1x,2x,3x,4x,5x,6x,7x,8x,1x,2x,3x,4x,
{2}5xh[2:1],C,
{8}7-2[8:1],7,4,3h[8:9],,8,,6,
,4,,,8,7,6,5,
4/2-5[8:1],,6,6,,7,,8h[8:5],
,,2,,4-1[4:1]*-7[4:1],,,,
,,C,,37,37,,15,
,2-5[8:1]/6-1[8:1],,,,48,48,,
2h[4:1],,4h[4:1],,6h[4:1],,8h[4:1],,
1-5[8:1],,5,,3b/7b,,,,
2-7[8:1],2,5,6h[8:13],,1,,3,
,5,,1,1,2,3,4,
5-2[8:1],,1,1-6[8:1],,4,,4h[8:5],
,,8,,Cf,,,,
8,8,7,7,6,6,5,5,
4,4,3,3,2,2,1,1,
7-2[8:1]*-4[8:1],,,,3-6[8:1]*-8[8:1],,,,
{16}24,,,57,,,13,,,68,,,4bw8[4:15]b/5bw1[4:15]b,,4b/5b,,
{1},,,,
{8}4,4,5,3,5,5,4,6,
3,3,4,2,6,6,5,7,
2,2,4,3,8,8,6,7,
{16}1x,8x,1x,8x,1x,8x,1x,8x,1x-5[8:1]b,8x,1x,8x,,,,,
{8}7-4[8:1],,3-8[8:1],,6,6,57,,
2-5[8:1],,6-1[8:1],,3,3,42,,
47,6,25,3,47,6,25,3,
47,6,2/5pp1[8:3],3,4-2[8:1],,,,
7-4[8:1],,3,,1,1-4[8:1],,5xb,
,,6,,8,8-5[8:1],,4xb,,,
7-3[8:1],,Cf,,2-6[8:1],,Cf,,
8-4[8:1],,Cf,,,{16},{32},{64},{128},{256},3xbv8V25[2:3],
{1}7xbv4V61[2:3]b,,
{8}3,3,5,6h[8:11],,,,,
B8/E8,,B2/E2,,B4/E4,,C,,
6,6,4,3h[8:11],,,,,
B1/E2,,B7/E8,,B5/E6,,C,,
7,7,1,2h[8:11],,,,,
A4/B4/E4,,A6/B6/E6,,A8/B8/E8,,C,,
6h[8:1]/2,2,7h[8:1]/3,3,8h[4:1]/4,4,4w8[2:1]b,,
,,,,,,2b/6b,,
1/7-3[8:1],,1-4[8:1],,5-8[8:1],,3,,
13,4,56,7,2-4[8:1]/8-4[8:1],,,,
6,5,43,2,7-5[8:1]/1-5[8:1],,,,
2-5[8:1],,6-1[8:1],,3,,,,
8/2-6[8:1],,8-5[8:1],,4-1[8:1],,6,,
86,5,43,2,7-5[8:1]/1-5[8:1],,,,
3,4,56,7,2-4[8:1]/8-4[8:1],,,,
5b/7b,,2b/4b,,6b/8b,,1b/3b,,
4/6-2[8:1],,4-1[8:1],,8-5[8:1],,2,,
42,1,87,6,3-1[8:1]/5-1[8:1],,,,
7,8,12,3,6-8[8:1]/4-8[8:1],,,,
{6}1x/3x,4x,5x,6x/8x,1x,2x,
{8}3x-8[4:1]/5x-8[4:1]b,,,,,,7x-4[4:1]/1x-4[4:1]b,,
,,,,2x/6x,2x/6x,,,
2-5[8:1]b,,6-1[8:1]b,,3-8[8:1]b,,7-4[8:1]b,,
3,,2,,1bh[4:1]/5bh[4:1],,,,
{16}47,,6,5,6,,1,,1,,6,5,6h[4:1],,,,
{8}1,,3x/4x,4x/5x,5/6-1[8:1],,2,,
48,,6x/5x,5x/4x,4/3-8[8:1],,7,,
6-1[8:1],,5-2[8:1],,8,,6,,
{16}52,,3,4,3,,8,,8,,3,4,3h[4:1],,,,
{8}8,,6x/5x,5x/4x,4/3-8[8:1],,7,,
15,,3x/4x,4x/5x,5/6-1[8:1],,2-5[8:1]b,,
6-1[8:1]b,,3-8[8:1]b,,7-4[8:1]b,,3,,
1,2,3-1[8:1],,7-4[8:1],,3,,
1,,38,7,46,,28,,
7,,61,2,53,,71,,
{6}3xb/7xb,26,15,4xb/8xb,37,26,
{8}1xv4[4:1]/5x-8[4:1],,,,,,5x<1[4:1]*>1[4:1],,
,,,,2xv5[8:1]/8xv5[8:1],2x/8x,,,
4x/6x,6,2x/8x,2,3x/5x,5,1x/7x,1,
4x/6x,,1w5[8:1]*-5[8:1]b,,{32}B1,Cf,B6/B5/B4,,{8},,,
3b/7b,,,,4,4h[4:1],,8,
,6,62,,2,2,48,,
62,,8,,5,5h[4:1],,1,
,3,37,,7,7,51,,
1,8,7,6,5,4h[8:5],,8,
,6,6h[2:1],,{16}E1,B1,B2,B3,{8}E4,,
8,1,2,3,4,5h[8:5],,1,
,3,3h[2:1],,{16}E1,B8,B7,B6,{8}E6,,
4,4,5,6,3,2pp6[8:5]b,,Cf,
,,,,,,,,
,{16}E7,E8,E1,E2,E3,E4,E5,E6,E7,E8,E1,,,,
{8}1x/5x,1x/5x,26,26,37,37,48,,
3b,3,5,5,4,4,6,6,
3b,3,4,4,5,5,6,6,
{16}B1,B2,B3,B4,B5,B6,B7,B8,E1,E2,E3,E4,E5,E6,E7,E8,
A1,A2,A3,A4,A5,A6,A7,A8,1x,2x,3x,4x,5x,6x,7x,8x,
{4}1x-5[8:1],5b>5[2:5]b*<5[2:5]b/Cf,,,{1},,,
4-8[2:1],
5-1[2:1],
{8}2-4[8:1],4-1-5[8:3],,A7f,,,6,,
8w4[8:1]b,,,,2xbh[4:1]/6xbh[4:1],,,,
2-5[8:1],,5,,7-4[8:1],,4,,
1-5[8:1],,5,,7-3[8:1],,3b,,
2-7[8:1],,7,,5-8[8:1],,8,,
2h[2:1],,E8/B8/E1/A8,,E4/B4/E5/A4,,{16}6,5,6,5,
{8}7,8,1,2,3,4,5h[4:1],,
7,8,1,2,3-7[8:1],,,,
{16}1,8,1,8,1,8,1,8,1,8,1,8,1,8,1,8,
{4}1h[4:3],,,{16}8x,7x,6x,5x,
{4}4xw8[8:1]b,B4f/C/B8,,,
{16}B8,B7,,,,,,,,,,,,,,B2,
E3,,,,,,,,,,,,,,,,
,,,,A6,E6,,,,,,,,,,,
,,,,,,,,,,C,
E
&inote_5=(200){1},
{4},,2,3,
{8}4h[4:3],,,6,,,8h[4:3],,
,4,,,2h[2:1],,,,
5,,{12}7,8,1,2,3,4,{8}5xh[4:1],,
{16}1,8,7,6,5,4,3,2,{8}1xh[4:1],,{24}5,6,7,8,1,2,
3,4,5,6,7,8,1,2,3,4,5,6,7x/3x,,,,,,1w5[8:1]/5,,,,,,
{32}1bqq3[2:3]b,Cf,,,{8},,,,,5,5h[8:7],
,,,,,,,,
,,7h[2:1],,,,5h[4:1],,
3h[2:1],,,,1h[2:1],,,,
8qq4[4:7],,,,,,2,2,
3h[4:1],,,,2h[4:1],,,,
1h[1:1],,,,,,8,,
7-5[8:1],,,,4-2[8:1]*-8[8:1]b,,,,
{4}7h[4:3]/1,1,2,2,
6h[4:3]/3,3,2,2,
5h[4:3]/1,1,2,2,
4h[2:1]/3,2-6[8:1],2,,
{8}4,4,5,5,3,3,6,6,
24,3,57,6,13,2,68,7,
{12}2x,4,3,7x,5,6,3x,1,2,6x,8,7,
{8}4bh[4:3],,,,8-5[8:1]b,,8xb,,
4,4,5,6<1[4:1],,1>4[4:1],,4<7[4:1],
,7-3-5[3:1],,,2,1,1,1,
2-5[8:1],,26,7-3[8:1],,37,,1>5[4:1],
,6,7,,8-4-6[4:1],,8,3,
2-5[8:1],,{32}E7,B7,B8,E1,{8},37,3-8[8:1]/7-4[8:1],,37,
,26,,4/8h[8:3],,3,3,,
6-4[8:1],,2>5[4:1]/6,,{12}7x,8,1,2x,3,4,
{8}1-5[8:1]/5x,,1b/7-3[8:1],,{32}3/7b,C,,,,,,,,,,,,,,,
{8}4,4,5,3-8[8:1],,7-4[8:1],,2-5[8:1],
,6-1[8:1],,6,4,4,3,3,
2-5[8:1],,26,8-4[8:1],,8/2-6[8:1],,25,
,,5-8[8:1]*-2[8:1],,5b,,,,
3,3,4,4,5,5,6,6,
37,3,4,4,25,5,6,6,
3/7-4[8:1],3h[8:1]/7,,,2/6-1[8:1],2h[8:1]/6,,,
{16}8/5h[8:1],,,7h[8:1]/4,,,6/3h[8:1],,,5h[8:1]/2,,,3b/6b,,4b/7b,,
{4}8x<5<8[4:7],,,4,
3h[4:1],,2h[4:1],,
1x>6p8[4:5]b,,,7,
7h[1:1],,,,
{8}1,1,2,2,3,3,4,4,
51,5,62,6,73,7,84,8,
57,4,13,8,42,5,86,15,
{16}1x,2,3,4,7x,6,5,4,2x,3,4,5,8x,7,6,5,
4b/8b,,,2,2h[4:1],,,6,6h[4:1],,,4,4h[4:1],,7h[8:1],,
1,2,3,4,8,7,6,5,8,1,2,3,7,6,5,4,
2,,2,,5,,5,,4,6,4,6,5,7,5,7,
5,4,3,2,8,7,6,5,1,2,3,4,15,,,,
{8}7bh[8:1]/4h[8:1],,{16}6,5,{8}6,47,4-8[8:1]/7-4[8:1],,4b/7b,
,3,{16}3,4,{8}3,52,5-1[8:1]/2-5[8:1],,5b/2b,
,,3-8[8:1]/8-4[8:1],,3b/8b,,6-1[8:1]/1-5[8:1],,
6b/1b,,4w8[8:1]b,,{16}4b,Cf,{8},,{16},{32},{64},{128},{256},6xbv1V74[2:3],
{1}2xbv5V38[2:3]b,,
{8}3,3,5,5,4,4,6,6,
2,2,5,5,{16}3,4,3,5,2h[8:1],,,,
{8}5,5,3,3,6,6,5,5,
7,7,4,4,{16}6,5,6,4,7h[8:1],,,,
{8}7-4[8:1],7,2-5[8:1],2,8-4[8:1],8,1-5[8:1],1,
7-3[8:1],7,2,2,{16}5,6,7,8,15,2,3,4,
1,4,1,4,2,5,2,5,3,6,3,6,4,7,4,7,
{32}4,5,6,7,8,1,2,3,4,5,6,7,8,1,2,3,4,5,6,7,8,1,2,3,{8}4xb/8xb,,
6-1[8:1]/2-4[8:1],,6/2-6[8:1],,2/8-5[8:1]*-3[8:1],,8,,
6/2-6[8:1],,2/5-1[8:1],5,5xw1[8:1],,5x,,
3/7-3[8:1],,7/4-8[8:1],4,4xw8[8:1],,4x,,
2-5[8:1]/6-1[8:1],,26,,3-8[8:1]/7-4[8:1],,,,
2-5[8:1]/6-8[8:1],,2/6-2[8:1],,6/4-1[8:1]*-7[8:1],,4,,
2/6-2[8:1],,6/1-5[8:1],1,1xw5[8:1],,1x,,
7/3-7[8:1],,3/8-4[8:1],,8xw4[8:1],,8x,,
1-5[8:1]b,,1b>3[8:1]b*<7[8:1]b,,1bw5[8:1],,1b,,
3-1[8:1]/7-4[8:1],,7/3-7[8:1],,3/5-1[8:1],,2-5[8:1]/5,,
2/7-1[8:1],,3-8[8:1]/7-5[8:1],4,3/7-3[8:1],,37,,
7/2-8[8:1],,6-1[8:1]/2-4[8:1],5,6/2-6[8:1],,62,,
{6}1xb/5xh[12:1],8h[12:1]/4b,7b/3h[12:1],6xh[12:1]/2xb,5b/1h[12:1],8h[12:1]/4b,
{8}3xv1[8:3]/7xv5[8:3],,,,,,2xv8[8:3]/6xv4[8:3],,
,,,,37,3h[8:1]/7h[8:1],,,
6/1-5[8:1],,1/8-4[8:1],,8/2w6[8:1],,2,,
4-1[8:1]/8-5[8:1],,48,,{64}D3f,A3,D4,A4,D5,A5,D6,A6,D7,A7,D8,A8,D1,A1,,,{8},,
3x/7-4[8:1],2,17,,2-6[8:1],,2/8-4[8:1],,
8/3-5[8:1],,3-1[8:1]/7-4[8:1],8,37,,26,,
1/6-4[8:1],,6-8[8:1]/2-5[8:1],1,62,,7-1[8:1]/3,,
7/3-7[8:1],,3/5V73[4:1]b,,5x/2,,1,,
6x/2-5[8:1],7,82,,7-3[8:1],,7/1-5[8:1],,
1/6-4[8:1],,6-8[8:1]/2-5[8:1],1,62,,73,,
8/3-5[8:1],,3-1[8:1]/7-4[8:1],8,37,,2-5[8:1]b/6,,
2b/6-1[8:1]b,,6b/3-8[8:1]b,,3b/7-4[8:1]b,,7b/2,,
5x/3-8[8:1],6,73,,6-2[8:1],,6/4-8[8:1],,
4/7-1[8:1],,7-5[8:1]/3-8[8:1],4,73,,62,,
4/2-8[8:1],,2-4[8:1]/6-1[8:1],5,26,,37,,
{6}2h[12:1]/6b,3/7h[12:1],4h[12:1]/8,1b/5h[12:1],2h[12:1]/6,3/7h[12:1],
{8}4V28[4:1]b/8V64[4:1],,,,,,1>5[4:1]/5<1[4:1]b,,
,,,,4x-1[8:1]*-7[8:1],4x,,,
8-5[8:1]*-6[8:1],,8-3[8:1]*-2[8:1],,8w4[8:1]*-4[8:1],,8,,
2-5[8:1]/6-1[8:1],,26,,3bh[16:7]/7bh[16:7],,,,
A1/B1/Cf/B5/A5,,,,6x,6x-1[8:1],,6x/3,
,4,4h[4:3],,{16}E1,B1,B2,B3,{8}E4,,
1-6[8:1],,14,,3,3-8[8:1],,36,
,5,5h[4:3],,{16}E1,B1,B2,B3,{8}E4,,
3,3,5,6,3,2-5[8:1],,28,
,7,7p3[4:1]*q3[4:1],,{20}E8/E7,B6/B8,B1/B5,B2/B4,E3/E4,{8},,
6,6,4,3,6,7-4[8:1],,71,
,2,2/5<8[4:1],,{16}2,3,4,5,1,2,3,4,
{8}1v4[8:1]/5-8[8:1],,15,,3,6/2>1[8:5]b,,25,
,,,,,,37,,
{16}15,,3,4,3,,62,,3x,4x,5x,6x,7x,8x,1x,2x,
6,4,6,4,5,3,5,3,6,2,6,2,8,,,,
{8}5h[4:3]/1,1,2,2,3,3,4,4,
4h[4:3]/8,8,7,7,6,6,5,5,
{16}1,5,2,6,3,7,4,8,5,1,4,8,3,7,2,6,
1,5,1,5,1,5,1,5,{32}1x,2,3,4,5,6,7,8,1x,2,3,4,5,6,7,8,
{4}1v4[8:1]/5-8[8:1],{32}1bq3[2:5]b/5bq7[2:5]b,Cf,,,,,,,{4},,,{1},,{4},3,4,
5xv8[2:1]*v2[2:1],,,,
5x-1[2:1]*-1[2:1],,,,
{8}8xv5[4:1]*v3[4:1],,8x,Cf,,,26,,
1-5[8:1],,1/C,,{32}4x,3x,2x,1x,8x,7x,6x,5x,{8}4x,,
3-8[8:1]/7-5[8:1],,3/7-3[8:1],,7/1-5[8:1],,15,,
7-1[8:1]*-5[8:1],,7-3[8:1],,37,,2,2,
6-1[8:1]/2-4[8:1],,6/2-6[8:1],,2/8-4[8:1],,84,,
2-7[8:1]*-5[8:1],,2,,Cf,,{16}3,4,2,5,
{8}1-5[8:1],1,8-4[8:1],8,7-3[8:1]b,7,6-2[8:1],6,
5-1[8:1],5,4-8[8:1]b,4,3,3,24,15,
{16}2b,4,8,6,3,5,1,7,{24}2b,1,8,7,6,5,{32}4b/1b,2,3,4,5,6,7,8,
{4}1hb[4:3]/5b,,,{24}3,4,5,6,7,8,
{4}1s5[4:1]*s5[4:1],1b>1[1:4]b/5b,,,
{16}B1,B2,,,,,,,,,,,,,,B7,
E7,,,,,,,,,,,,,,,,
,,,,A3,E4,,,,,,,,,,,
,,,,,,,,,,C,
E
