&title=Jack Out KIllER
&artist=MisoilePunch♪
&first=0.069
&des=AClrt_
&lv_5=14+
&inote_5=(173)
{8},,,,,,,,,,,,,,,,,,,,
{16}1,8,2,7,3,6,4,5,
3b-8[16:1],,,7b-4[16:1],,,1h[4:1],,,,5,,16,,7,,38,3h[8:1],,7,7h[8:1],,
1^4[8:1],,,,5,,6,,7,,8-5[16:1],8h[8:1],,5,,,3,4,2-7[16:1],2h[8:1],,
6h[8:1],,,6,,8b-4[8:1],,,1,8,,3h[4:1],,,,5,,6,,7,,
37,3h[8:1],,5,5h[4:1],,7,,1h[4:1],,,8,8h[4:1],,6,,
4b,3,2,1,5,6,7,8,3h[16:3],,,2,3,,45,,2/7,2,,86,6,,13,3,,45,45,,
8-4[8:1]/1,,2/7,,18,1h[8:1],,5,1,,2b^5[8:3]/6^1[8:3],,,,,,,,,,,,,,,,,,,,,,,,,,
3/6h[2:1],,3,,2,,2,,1,6,2,6,3,6,4,5,
3h[8:1],,4,5h[8:1],,4,3-8[4:1],,,,5,,6,,7,,7h[4:1],,1,,2h[4:1],,8,,
7h[8:1],,2,6h[16:3],,,1,,25,,3,,4,,5,,3,,4,,5,,6,,36,,7,,4,,5,,
1,6,2,6,3,6,4,5,
3h[8:1],,5,6h[8:1],,4,3h[4:1],,,,5,,6,,7,,47,,3,,25,,6,,74,,3,,25,,25,,
3,4,2,6,5,7,3,4,1,6,5,8,
{32}2,3,4,5,6,7,8,1,
{16}2b/6,,3,5,4,6,3-8[8:1],5,,5,3,,6,,5,5,2pp5[4:2],,6,,2,,7,
7h[16:3],,,,,8,,4,,36,,2,5,,4,7,3,8^5[8:1],,3,8,,,2,,14,,58,,
7,6,7,6,7,6,7,6,7,8,1,2,
7b/3,,6,4,5,3,6-1[8:1],4,,4,6,,3,,4,4,7qq4[4:2],,3,,7,,2,
2h[16:3],,,,,1,,5,,6,2,6,2,6,2,6,2,6,3h[8:1],,7h[8:1],,1h[8:1],8,,
2b-5[8:1]/7b-4[8:1],,,,,,,,3,2,1,6,7,8,1,2,
3/6b-1[16:1],6h[8:1],,2-5[16:1],2h[8:1],,6-1[16:1],6h[8:1],,2,2h[4:1],,,,
8,7,6pp1[4:2]/2pp5[4:2],,,,,,,,,,,,,,,,
6/3b-8[16:1],3h[8:1],,7-4[16:1],7h[8:1],,3-8[16:1],3h[8:1],,7,7h[4:1],,,,
1,2,3qq8[4:2]/7qq4[4:2],,,,,,,,,,,,,,,,
6b-1[16:1],6h[8:1],,2-5[16:1],2h[8:1],,7-4[16:1],7h[8:1],,,3-8[16:1],3h[8:1],,
,,,
6bv1[16:1],6h[8:1],,2v5[16:1],2h[8:1],,7,7h[4:1],,,,,4,3,2,1,5,6,7,8,
3,2,1,6,7,8,3h[8:1],,1h[8:1],,8h[8:1],,6b,,5,,3,4,3,,27,,18,,6,5,6,,
4/7-2[16:1],7h[8:1],,4-1[16:1],4h[8:1],,7-2[16:1],7h[8:1],,4,4h[4:1],,
1,8,7,6,
5/2-7[16:1],2h[8:1],,5-8[16:1],5h[8:1],,2-7[16:1],2h[8:1],,5,5h[4:1],,
8,1,2,3,
4/7-5[16:1],7h[8:1],,4-2[16:1],4h[8:1],,7,,7,,
8,1,7,2,6,3,5b,4,6,3b,4,2,5b,3,6b,4,7,5,6,4,5,3,4h[8:1],,2,,
1^4[8:1]/5,,1,,5,6,7,8-6[8:1],,,8,,4,3,2,1,5,6,7,8,1h[16:5]/2,3,4,5p1[8:1],,
,8,7,6b,,,,,,
1,5,3b/7b,,,,,,,,
{12}48,48,48,48,48,48,2b-7[8:1]/6b-3[8:1],,,,,,
{16}15,,3/7h[4:1],,4,3,2,1,8-4[8:1]/7b,,,1b/8,,,2b,,3,,3,5,,5,4,,3b/6b,,
3,8,2,7,1,6,2b,,2,5b,,5,3b,7,4b,,4,8b,,8,1,6,2b,7,3,8b,2,7,
1<3[8:3],6,3,4,1,5,,,,,8,,
6/2h[4:1],,5,6,7,8,1-5[8:1]/2b,,,8b/1,,,7b,,6,,6,4,,4,5,,6b/3b,,
6,1,7,2,8,3,7b-3[16:1],,7,4b^1[16:1],,4,7^5[16:1],,7b,,7,3^8[16:1],,3,4,5,
6b-1[16:1],,,3b-8[16:1],,,6b-1[16:1],,,3bq5[16:6],,,
8,7,6,5<4[16:17],4b,,,,,,,,,,,,6,,6,,6h[1:1],,,,,,,,,,,,,,,,
5q3[4:7],,,,,,,,,,,,,,,,1q7[4:7],,,,,,,,,,,,,,,,,,,,,,,,,,,,,,,,
2,,,,,,,,45,,,,,,,,72,,,3,4,,2,,27,,6,,56,4,3,2,1/5b-1[16:1],,,2b-5[16:1],,,
7b,,4h[4:1],,8,,8,,3,,
{32}2h[8:1]/7,6,5,,,,7h[8:1]/2,3,4,,,,2/7V51[4:1],6,5,,,,7/2,3,4,,,,4h[4:1],,,,,,,,
{16}8,7,6,5,43,,2,2,,8,1,7,7,,4,5,3b,2,,5,6,,3,2,,5,6h[8:1],3,3h[4:1],,5,,4,,
2,,8,,1,,6,,5^8[8:1],,4,,3,,2,1,,3,4,,6,5,,7,8,,2,1,2,,
3/8b-6[16:1],,,1b-3[16:1],,,8b-4[16:1],,,1b-5[16:1],,,7h[4:1],,,,
3b,4,2,2,6b,5,7,7,2b,1,3,3,7b,8,6,6,3b,4,2,6,5,7,2,3,1,7,6,8,1,2,3,4,
1bqq5[4:3]/5,,,,,,,,4,,,3,,,2,,1h[2:1],,,,,,,,5,,,,,,,,
7h[8:1],,,7h[8:1],,,46,,3h[2:1],,,,,,,,2h[2:1],,,,,,,,4,1,8,7^4[4:1],,,,,
3,,,,1,,,,65,,,,8,,,,3/4h[4:1],,,,2,,,,6/5h[4:1],,,,7,,,,48,,48,,37,,37,,26,,26,,
15,2,3,4,
5/7b-4[16:1],7h[8:1],,2b-5[16:1],2h[8:1],,8b-4[16:1],8h[8:1],,1b-5[16:1],1h[8:1],,
8,7,6-3[8:1]*-1[8:1],4,,,6b,,,,,
{32}8b/2b,7,6,5,,,34,,,,
{16}2,2,8,,17,,56,,3,4,3,2/5b,,8,1,,17,,35,,
6,5,6,4,5,4,7,5,7,3,5,2,8,1,7,2,6b/3,,
2,4b,,7,5b,,,,18,,27,,36,,
3,4,3,5,4,5,2,4,2,6,4,7,1,8,2,7,3,6,4,5,3,6,2,7,
{16}1b-5[8:1],,6b-1[8:1],,1b,,6b,,3b,,,2b/8b,,,1bq4[8:3]/7b,,,,,,,,,,
5b-8[16:1],,,4b-1[16:1],,,6b-1[16:1],,,3b,,,
{24}7,6,5,4,3,2,1w5[8:1],,,
{16},,1b,,,,7h[4:1],,1,,3h[4:1],,1,,5h[4:1],,8,,3h[4:1],,1,,7,6,5,3,2,1,6,7,
8/3b,3,5,2,,2,7h[4:1],,8,,3h[4:1],,4,,5,,64,,7,5,7,3,4,3,1,2,8,7,62,,26,,
{24}4b,5,,5b,4,,4b,6,,6b,3,,3b,7,,7b,2,,2b,8,,8b,1,,1b,7,,7b,8,,8b,6,,6b,1,,
1b,2,3h[12:1],7b,6,5h[12:1],2b,3,4h[12:1],6b,7,8h[24:1],
4b,3,2,1,8,7,6,5,4,3,4,5,6,7,8,1,2,3,47,8,1,2,3,4,
{16}5/1b-5[16:1],1h[8:1],,6b-1[16:1],6h[8:1],,
3b-7[16:1],3h[8:1],,7b-4[16:1],7,,8h[8:1],,,,
7b-3[16:1],7h[8:1],,2bv5[16:1],2h[8:1],,6b-1[16:1],6h[8:1],,1b-5[16:1],1,,
2h[8:1],,,,
{16}3b,5,4,6b,4,5,{32}2b,3,4,,7b,6,5,,
{16}3b,4,1b,6,5,8b,,,,,1bpp6[4:5]/8h[16:26],,,,,,,,,,,,,,,,,,,,,,,,
,{32}5,4,3,2,1,,7b,,,,,,,,,,,,,,3,,3,,54,,,,,,,,,,,,,,,,,,,,,,,,,,,,,,
E
