&title=アマツカミ
&artist=a_hisa
&first=0
&des=LinkRZero
&freemsg=a_hisa
&wholebpm=180
&des_5=LinkRZero
&lv_5=13+
&inote_5=(180){1},{4}
4-1[4:11]/5h[2:1],,,,6h[2:1],,,,7h[2:1],,,,8,{16}
E8,B7,B6,E6,{4}1-4[4:11],,5,,6h[4:1],,7h[4:1],,8h[4:1],,
7,6,5h[1:1],,Chf[1:1],,,,8b,{12}
7x,7,1,8,,,7,7,2,8,,,7,7,4x,8,,,7,7,6x,8,,,
5/7,5,8,4,,,4/7,4,8,3,,,2/7,2,6,1,,,6/8,8,5,{8}7xb,
6,8,5,1,5,2,4,3,5,3,4,3,2,3,1,2x/8x,2,3/8,3,4/8,4,5/8,5,7/4,{16}
6,4,7,3,8,2,7xh,1xh,6xh,2xh,5xh,3xh,4xV25-1-6-8[4:3],,{1},{8}
5b,,6h[8:3]/4,,,5,7/4,,4,,3h[8:3]/5,6,,4,2/5,,
4,,3h[8:3]/5,,,4,2/5,,5/4,,6,6,4,4,3h[4:1]/5,,
8x,,1x/7xh[8:3],,,8,1/6,,8,,2h[8:3]/8,7,,1,3/8,,
1,,8/2h[8:3],,,1,3/8,,8/1,,7,7,1-5[8:1],8,1x/7,,
7-5[8:1],,3-1[8:1],,6,6,7-4[8:1],,3-8[8:1],,6,6,5,1x,1x/7x,,
2>4[8:1],,6<8[8:1],,3,3,2,2,3/7,{16}6,5,{8}7,3,4/6,2x,1x,2x/8x,
7<4[8:1],,3>8[8:1],,7,7,6-1[8:1],,2-5[8:1]/6,,7,7,8,4x,4x/6x,,
8-4[8:1],,2/8,3,2/5,6,8<5[8:1]/7,1,8>3[8:1],,8-4[8:1],,8,3x,1bx/7bx,,
2h[4:1]/8-4[8:1],,8,,2,2,1-3[8:1]/7h[2:1],,1-5[8:1],,1,,
6,6,2/5,3,8-3[8:1]/4h[2:1],,8-6[8:1],,8,,4<3[8:3],,7h[8:3]/4,,,,
5x,,6-8[8:1]/5,,6-4[8:1]/2h[4:1],,6,,
3,3,4/6,7,2>4[8:1]/6h[2:1],,2<8[8:1],,2,
5,5,2,3-8[8:1]/4h[2:1],,3-5[8:1],,3,,7<8[8:3],,7/4h[8:3],,,{16},
7x,6x,5x,4x,3x,2x,1x,8x,7x,{8}
6x/2x-5[8:1],,2/8,,4x/6x,7,1/8<6[8:1],,8-5[8:1]/2,,8-4[8:1]/3,,
8/2,2,1x/5x,6,4/7<5[8:1],,7-4[8:1]/3,,7-3[8:1]/2,,1<2[8:3]/7,,1/5h[8:3],,,,
6x,,7/4,3,1bx-6[8:1]/5xh[4:3],,1>4[8:1],,1<6[8:1],,1,,
8bx-5[8:1]/4xh[4:3],,8-3[8:1],,8<5[8:1],,8,,
5xb<8[8:1]/2xb>5[8:1],,,,7xb<4[8:1]/4xb>1[8:1],,,,
1bx-4[8:1],,7/1-6[8:1],,3/1bxw5[8:1],,1,,{16}
3b/7h[4:3],,,,,,2,3,4,,,,,,2,3,4x/8xh[2:1],,,,,,
2,3,4,,7,,3/5,,4,,6/2h[2:1],,,,,,7,6,5,,,,4/6,,,,
3h[4:3]/7,,,,4,,4,,5h[8:1],,,,5h[8:1],,,,
2h[4:3]/6,,,,,,7,6,5,,,,,,7,6,5x/1xh[2:1],,,,,,
7,6,5,,2,,4/6,,5,,7h[2:1]/3,,,,,,2,3,4,,,,{8}
3/5,3/5,2-5[8:1]/6h[4:1],,2,,7-5[8:1]/1-5[8:1],,7/1,,{16}
3b/7b,,,,1/6,,2,4,3,,5,,1-5[8:1]/6,,2,,
1/8,,7,,6,,4,5,3,,6,,1/7-4[8:1],,8,,
1/7,,2,,3,,7,5,6,,4,,3/1<6[8:1],,8,,
1/2,,3,,4,,6,5,7,,3,,1/7,,6h[8:3],,{32}
8bx,1x,2x,3x,4x,,,,,,,,{16}4x,4,8<5[8:1],,3,,2/8,,3h[8:3],,{32}
5x,6,7,8,1,,,,,,,,{16}1x,1,2>5[8:1],,8,,7/2,,8h[8:3],,{32}
5x,4,3,2,1,,,,,,,,{16}1,1,6>3[8:1],,2,,6/3,,2h[8:3],,{32}
3x,4,5,6,7,,,,,,,,{16}7,7,1>4[8:1],,8,,1-5[8:1],,{32}8x,7x,6x,5x,{1}
1xb-6-3-8<1[2:7]/Cf,,,{4},,,,
5h[2:1],,C,6,5h[2:1],,C,,4/5h[2:1],,C,,5h[2:1],,
Chf[2:1],,8b,,Chf[2:1]/B6/B2,,,,
Chf[2:1]/B7/B6/B4/B3,,,,Chf[2:1]/B6/B5/E6/B2/B1/E2,,,,
C/7x,7,8,8,C/1,1,
2>5[4:1],5<8[4:1],8>3[4:1],3q5<3[4:5]*q5V71-3b[4:5],{1},{4},,4b/5b,{16}
2b/7b,,,,1b/6b,,3,5,4-1[8:1],7,5,6,4-7[8:1],,,,4x/1x,,,,
7x/1x,,2,8,1>4[8:1],6,8,7,1<6[8:1],,,,1x/4x,,,,
5x/4x,,3,4,2-5[8:1],6,3,7,2-7[8:1],,,,2x>1[8:3]/5x,,,,
7x,,A5,A6,A7,A8,A1,A2,5bx,,
5b,,6b<1[8:1]/2>5[8:1],,3b,,2/6,,,,{32}1x,8x,7x,6x,4x,3x,2x,1x,{4}
8x-4[8:1],8x<5[8:1]/5x>2[8:1],8/5,{32}4x,5x,6x,7x,1x,2x,3x,4x,{8}
5x-2[8:1]/8-4[8:1],,5x/8x,,1x-5[8:1],1x,7<4[8:1],7,2w6[8:1],,2x,,{16}
8b,,6xb,5xb,7b,,3xb,3xb,1b,,6xb,5xb,7b,,2xb,2xb,
8bw4b[8:1],,,,8,,,,1p5b[8:1]*v6b[8:1]/7,,,,1,,,,
7x/4x,,3,8,4,6,2,7,1p5b[8:1]*v6b[8:1],,,,1,,,,{4}
8x-4[8:1]/7x-5[8:1],8>1-3[8:1]/7q3[8:1],8p4[8:1]/7v5[8:1],7>6b[8:3]/8,Cf/7,,{8}
2,8,3>8[8:1]/7<4[8:1],2/6,7/3,,{32}8x,1x,2x,3x,5x,6x,7x,8x,{8}
1x<6[8:1]/5>2[8:1],,1/5,,5-1b[8:1],5,3-7b[8:1],3,8w4b[8:1],,8,,
2b/6-1[8:1],2,2,2,3b/8-5[8:1],3,3,3,
1-3[8:1]/6b,6,1-5[8:1]/7b,7,1w5[8:1]/8b,8,1b,,{4}
D7/A6/B6/E6/B5f/B4/E5/A4/D4,{16},,
7x,6x,5x/2,,2,,5/3,,,,5h[4:1]/4h[4:1],,,,,,2,3,4/7,,7,,4/6,,,,
3/7,,3,,3/8,,7x,6,5/2,,3,,8/4,,7,,6/2,,6,,6/1,,2x,3,4/7,,6,,5/1,,2,,
4/3,,5,,7/3,,2,6,2-6[8:1],5,1,4,2,,,,
5/4,,3,,7/2,,1,6,1-5[8:1],5,8,4,1,,,,
3x,6,2,6,1,5,8,4,4-8[8:1],,1,,4,,,,
2x,5,1,5,8,4,7,3,3-7[8:1],,8,,3,,{32}8x,1x,2x,3x,{1}4xV25-1-6b[8:5]/Cf,{12}
8,5,5,8-6[8:1],4,4,8x-4[8:1],3,3,8x,2,2,{32}8xb/1xb,7/2,6/3,5/4,,,,,{4},,,{1},,,,
E
