&title=$trange Attraktor
&artist=shwarzekugel
&first=0.51
&des=Don't drink and drive
&lv_5=14
&inote_5=(145)
{16}3h[8:1],,,4,5h[8:1],,4h[2:1],,{2},{16}6h[8:1],,,5,4,,3h[8:3]/5h[2:1],,{8},,,{16}2,4,3h[8:1]/5x,,,6,7h[8:1],,5h[2:1],,{2},{16}6h[8:1],,5,4h[8:1],,,3/5,,{4},{16}A4,D5,A5,D6,7h[8:1],,8,7h[8:1],,,{8}1,2/8,2,3/8,3,4h[8:1],{16}7,4h[8:1],,,{8}6,3/5,5,2/5,{16}5,1,{8}6h[8:1],{16}5,6h[8:1],,,{8}4,3/7,7,7/5,7,4h[8:1],{16}8,4h[8:1],,,{8}3/7,4x/6x,4/6,3x/5x,3/5,
{8}2/6b-1[8:1],3,4,5,6w2[8:1],6,{4},{8}8-5[8:1],7,4-1[8:1],3,6<3[4:1],5,Cf,,1hx[4:1],5,6-3-6[4:1],2-7-2[4:1],{2},{16}6,5,{8}7-4[8:1],3-8[8:1],7,3-6[8:1]*-5[8:1],,3b,,{8}1/8,{16}3,4,3,,6,5,6,,3,4,2,,6,5,7,,3,4,1,,6,5,8,,2,1,3,,7,8,{8}6,6,5,5,{16}4,3,5,2,6,1,7,8,{4},{8}2/6-8^7-1^8-4[8:3],3,{2}4,
{8}2x/5x,{16}6,4,{8}7,3,1-5[8:1]/2,8,1/7,8,1-5[8:1]/2,8,1/7,8,1-5[8:1]/2,8>3[8:1],1/7,8,4x,{16}6,5,{8}7,3/8,1/2,4/7,5/6,{16}3,4,{8}2>5[8:1],1,2/6,7,{16}8-4[8:1],4,1,,{4}3/8b,
{8}7x/5x,{16}4,6,{8}3,7,1-5[8:1]/8,2,1/3,2,1-5[8:1]/8,2,1/3,2,1-5[8:1]/8,2-6[8:1],1/3,2,7x,{16}4,5,{8}3,2/6,4/7,1/5,3/4,{16}2,5,{8}1-5[8:1],8,1/6,7,{16}8,3,1,,
{8}2b/6b,3-6[8:1],4,8v2[8:1],1,3-6[8:1],4,8v2[8:1],1,3-6[8:1],4,8v2[8:1],1-7^8-6^7-5^6-4^5-3b[2:1],{2},{8}2xv8[8:1],1x,7p3[8:1],6,2v8[8:1],1x,7p3[8:1],6,2xv8[8:1],1x,7p3[8:1],6v5-7^6-8^7-1^8-2b[2:1],{2},{8}3-6[8:1],4,8v2[8:1],1,3-6[8:1],4,8v2[8:1],1,3-6[8:1],4,8v2[8:1],1-7^8-6^7-5>1b[2:1],,{2},{8}4x,3x,2x,1x,{16}8,7,6,5,4,3,2,1,{4}8h[2:1]/4b,3b,2bv8[8:1],2b-4^3-5^4-6^5-7[8:3],
,8-2^1-3^2p6[8:3],,4-6^5-7^6p2[8:3],,1-7^8-6^7-5^6-4[8:3],,2-8^1-7^8-6[4:1],6-4^5-3^4-2[4:1],2,8,1/7-5^6-4^5-3[4:1],3-1^2-8^1-7-3[8:3],7,{8}3,2,{4}1/5-7^6-8^7-1[4:1],1^2-8^1-7^8-6[4:1],4v5-3v4[4:1],,6-8^7-1^8-2^1-3^2-4[8:3],,{8}5-3[8:1],6,{4}5v7b[8:1],8-2^1-3^2-4^3-5^4-6[8:3],6,7,8p3[8:1],2-8^1-7-4[4:1],6-4^5-3-8[4:1],,{8}1x<1[4:1],2/6,Cf,,
{8}7-5^6-4[4:1],8,7/4^3-7^8[4:1],,{4}8-2^1-3[4:1],3,{8}4-2^3-1^2-8^1-7[8:3],5,{4}6-4^5-3^4-2[8:3],,1,{8}7/8-2^1-3^2-7[8:3],6,{4}4-6^5-7^6-3[8:3],,2,1-3^2-4^3-5[4:1],1-7^8-6^7-5-1[8:3],,{8}3-5^4-6^5-7[4:1],2,{4}7-5^6-4^5-3^4-2[8:3],1,{8}8v2[8:1],7,1h[4:1],,4-7^6-1^8-3[8:3],8,2-5^4-7b[4:1],,{2},{4}1x/2x-4^3-5^4-6^5-7[8:3],8v2[8:1],,{8}8x-6^7-5^6-4^5-3[8:3],1x/7x,2v8[8:1],,,,{16}1,7,2,6,{4}3b,
{8}5/6,7,5/6,4,5/6,8,5/6,3,5/6,1,5/6-8^7-1^8-2^1-3[8:3],2,,,5h[8:1],,{8}4/3,2,4/3,5,4/3,1,4/3,6,4/3,8,4/3-1^2-8^1-7^8-6[8:3],7,,,4h[8:1],,{8}1/2,3,1/2,8,1/2,4,1/2,7,1/2,5,1-7^8-6^7-5^6-4[8:3]/2,6,3-7b[8:1],,,,{8}1/8,8/7,7/6,6/5,5/4,4/3,3/2,2/1,{16}8,7,6,5,4,3,2,1,{4}4z8[8:1]/8,4/6w2[8:1],
{1}6b,{4}4/5p4[2:1],2^8^1^8^1^7[2:1],,,6p5[2:1],,,,3q4[2:1],5^7^6^7^6^8[2:1],,,1h[2:1],E2,E3,E4,E5/D5/6h[2:1],E6/D6,E7/D7,E8/D8,{8}1/2,1/2,3/8,3/8,{16}4,7,5,6,3,8,2,1,{4}3b,2b,1b-5[8:1],8<7^8<6[4:1],
{4},4^3^4>2[4:1],{8}5,6,7^4^5^4^6^5<1^8^1^8^2^7-3[8:7],,{4}3h[2:1],,,{4}4^2^3^1-5-1v1^7^8^6[8:7],7h[2:1],,,,{8}1,1,2/8^7^8^5-1[8:3],2^3^2^4[4:1]/8,{2},{8}8-4[8:1],7,8^2^1^2^1>7[8:4],6,{2},{8}3-5-3-5-3-1-3-1-3-7[8:5],2/8,{4},,,6x-3-6-3-6-1[8:5],2x-5-2-5-2[4:1],{2},{4}4^2^3^1[4:1],8^6^7^5s1[8:3],{2},
{8}2/8,4,2/8,6,2/8,3,2/8,7,2/8-6-1b[8:5],1,2-6v6v6-3[8:3]/8,1,{2},{8}5/7,6,5/3,4,5/7,8,5/3,2,5V38b[8:5]/7,1,5/3-5-3-5-3-5-8[8:3],1,{2},{8}4/2,3,4/6,5,4/2,1,4/6,7,4<6-3b[8:5]/2,8,4/6^7^6^7^6^7-2[8:3],8,{2},{8}1b/8b,5/7,1b/8b,2/4,1b/8b,5/7,1b/8b,2/4,{16}3,4,3,4,2^3^2^3^2-7[4:1],5,2,5,{4},6-3b[8:1],C,
