&title=Fantastic Magic
&artist=TK from 凛として時雨
&first=0.2
&des=南無三
&lv_5=14
&inote_1=
&inote_5=(148)
{4},
{16}3b,6,5,6,5,6,5,6,2b,5,4,5,4,5,4,5,1b,4,3,4,3,4,3,4,8b,3,2,3,
{32}2-6[12:1],1,8,7,6,5,4,3,2bqq5[4:6]/7p4[4:6],,,,,,,,
{4},,,,,,,3-6[8:1]/6v1[8:1],,8-5[8:1]/5p1[8:1],,4-7[8:1]/8v2[8:1],,
{16}1,1,1,1,{24}2,3,4,6,7,8,2bz6[4:6],,,,,,
{4},,,,,,,8-4[8:1]/5-2[8:1],,1v4[8:1]/5q1[8:1],,5-1[8:1]/8<5[8:1],,4h[2:1],
{16},,1,2,3v5[6:1],,,5p1[8:1],,,,,7b,,,,
{1},{4},,,
{16}27,,3h[16:3],,,6h[16:3],,,5h[16:3],,,7h[16:3],,,3h[16:2],,8,,8h[16:2],,5,8h[16:2],,4,8h[16:2],,,,2b,,,,
{16}3h[4:1],,,,2p6[8:1],,,5,5V38[4:1],,,,6,,5,,4-7[8:1],4,,,1,,2,,
{16}3-8[8:1],,,8V26[16:3],,,7,,6,,,5v2[8:1]*v7[8:1],,,,,,,,,
{16}1,,,6pp5[16:5],,3,5,,2,,,,8>3[8:1],,,,4,,,,7v4[8:1],,,,4,,,5,5-1[8:1],,,,56,,,
{16}7,7,2p5[16:3],,,8,,,,7-4[8:1],,,4V62[16:3],,,3,,2,,,1v4[8:1]*v6[8:1],,,,,,,,,
{16}2,,,7qq8[16:5],,4,6,,{24}2,,,,1,2,3h[8:1],,,,2,3,4q8[8:1],,,1,,,2,,,3b-5[8:1]*V16[16:6],,,,,,,,,,,,,,,
{16}5,,,,4pp3[16:3],,3,,2,2,,,1,8,,5,6,,3,,
{16}5qq6[16:3],,6,,7,7,,,8,1,,4,3,,6,,
{24}57,,,6-8[12:1],5,6,5,6,5,6V47[4:1],,,{16}3,3,,2,2,,1,,
{4}8bV26[4:4]*V25[4:4],,,,,,
{16}8h,,,7V13[4:1],,,6h,,5h,,,4v7[8:1]*-1[8:1],,,,,,,,,
{16}7,,,,1h[16:3],,,8,2<6[32:5],,3,,,,4V25[6:1],,5,5-1[8:1],,,
{16}7h[16:3],,,,7-3[8:1],,2,,,,1pp5[16:5],,2,5,1,,,,
{16}6,,7,7-4[8:1],,,4V62[16:4],,,3,3,,2,,1q6[8:1]*v6[8:1],,,,
{4},{16}7>5[16:5],7,,4,4,,3,,1,,,1h[16:5],
{4},{16}7>5[16:5],7,,4,4,,3,,1h[16:8],,,,
{4},{16}7>5[16:5],7,,4,4,,3,,1h[16:8],,,,
{4},{16}7>5[16:5],7,,4,4,,3,,1bqq4[4:12]*>8[4:12],,,,
{1},,,{4},
{16}3-8[8:1],,,8V26[16:3],,,7,,6,,,5>5[4:5]*v7[6:1],,,,,
{4},,,,,{16},,3,4,2h[8:1],,7,1,6h[8:1],,8,6,1h[8:1],,4,2,5h[8:1],,3,4,1h[8:1],,8,2,7h[8:1],,4,8,
{32}5h[2:1]/1b,2,3,4,,6,7,8,1,2,3,4,,6,7,8,
{16}1qq5[16:7],,,4,,,3,,,,3,,,,2,,1qq3[16:7],,,5,,,6,,,,6,,,,
{16}7,,8-4[16:1],,,5-2[16:1],,,1-5[8:1],,,,8>7[8:3]*<1[8:3],,
{4},,,{16}8,8,8,8,{24}1,2,3,6,7,8,
{16}5>2[8:3],,,1,,,8,,,,8,,,,7,,6>3[8:3],,,2,,,1,,,,1,,,,
{16}8,,8-3[16:1],,,4-7[16:1],,,5-1[8:1],,,,1V74[8:3]*V36[8:3],,
{4},,,{24}3,7,3,7,3,7,{32}3,4,5,6,7,8,1,2,
{16}3bV51[6:1],,,,36,,7,,8,2-5[8:1],,2,,,1,,{24}1bV73[6:1],8,7,6,,,{16}15,,6,,7V51[6:1],7,,3,,,
{16}4,,{24}4b-7[8:1]/8b-3[8:1],37,26,15,,,48,,,{16},,8,,,5,6,,2b-5[8:1]/4b-8[8:1],,
{4},,{16}7h[8:1],,,4h[8:1],,,6h[8:1],,
{24}5bV71[6:1],4,3,2,,,{16}25,,3,,4,1-5[8:1],,1,,,
{16}4,,{24}4bV61[6:1],3,2,1,,,{16}14,,2,,3V52[6:1],3,,7,,,8,,
{24}1b-5[8:1]/8b-4[8:1],27,36,45,,,{16}18,,,,2,,,5,4,,7b<4[8:1]/5bp1[8:1],,
{4},,{16}2,,2-5[8:1],,5V37[4:1],,6,,7,,,8v5[8:1]*-2[8:1],,,,,
{4},{16}4pp1[16:7]/3,,,,1,,,,2<5[4:1],,,,3,,,,4qq5[16:6],,,5,5,,,,6>1[4:1],,,,7,,,,8,,,,1-7[8:1]*-6[8:1],,,,1s5[6:1],,,,1,,
{16}7,,6,,5,,{24}3,4,3,4,3,4,2b,,,,,,6,5,6,5,6,5,7b,,,,,,2,1,3,8,2,1,3b,,,,,,7,8,6,1,7,8,6b,,,,,,
{24}1<6[8:1],2,3,4,5,,1b,,,,,,4<7[8:1],3,2,1,8,,4b,,,
{16}1,,2h[8:1],,,3h[8:1],,,4h[8:4],,,,8h,,7h,,6h,,
{16}5-1[8:1],,,,57,,,,4-8[8:1],,,,24,,,,5p3[4:1],,,,75,,,,4<7[8:1],,,2,,,3,,5V38[4:1],,,,
{16}57,,,,4V61[4:1],,,,24,,,,5>2[8:1],,,,57,,,,{24}4,1,4,2,4,3,4-8[8:1],,,5,,,46,,,,,,
{16}7V13[4:1],,,3,3V57[4:1],,,7,7>3[4:1],,,3,3<7[4:1],,,7,7q3[6:1],,,3,3q7[6:1],,1,,1,,
{16}2,,2V84[32:7],,,4,4V26[32:7],,,6,6-1[8:1],,,7,7h[32:8],,,,{32}1w5[8:1],2,3,4,5,6,7,8,{4}1b,
{16},,3-6[8:1],,6V48[4:1],,7,,8,,,1q5[8:1]*v6[8:1],
{4},,,3>3[8:17]/4v5[8:1],,6v4[8:1],,4v7[8:1],,8v5[8:1],,6<1[8:1],,
{16}2,,2-7[8:1],,7V15[4:1],,6,,5,,,4-7[8:1]*v2[8:1],
{4},,1-6[8:1]/6-4[8:1],,4q6[16:5],
{16},,8,,1,,2,,
{16}3b,5,4,7,5,1,2,8,3b,6,5,7,4,8,2,6,1b,5,3,4,8b,7,1,5,
{32}8b,7,6,5,4,3,2,1,8b,7,6,5,4,3,2,1,
{4}7b-4[8:1]/8b-4[8:1],,2bv5[8:1]/6bv1[8:1],,4bqq2[8:1]/8bqq6[8:1],,{16}1bpp4[8:3]*pp4[8:3]`5bpp8[8:3],
