&title=亜空間遊泳ac12.5
&artist=「太鼓の達人」より
&first=-0.9599994
&des=Rotifera[第八者]
&lv_5=14
&inote_5=(153){4},{16},,,,,,,,,,,,5,
4,6,3,7,2,{8}8/1,{24}2,3,4,1,2,3,8,1,2,7,8,1,
6,7,8,5,6,7,4,5,6,3,4,5,{2}3h[4:1]/6h[4:1],
{6}8,8,{12}8,8,,8,,8,8,,{6}1,
1,{12}1,1,,1,,1,1,{48},,,,{16}7,
4,6,3,5,2,8,1,7,4,6,3,5,2,8,1,
{12}6,5,4,3,{48},,{16}8/1,1/8,{2}2h[8:7]/7h[8:7],
,1b,
{16},,,,,,,,5-2[8:1],,,6,{4}5,
{8}8h[8:1],{16}5,7h[8:1],,4,6,4,5,3,{8}4-7[8:1],,4,
2h[8:1],{16}1,3h[8:1],,4,2,1,4-7[8:1],,,3,{4}4,
{8}1h[8:1],{16}4,2h[8:1],,5,3,6-2[8:1],4,,,6,,1,,1-5[8:1],
8,1,{8}8,{16},2,,3,4,2,6,5,{4}7,
{8}1h[8:1],{16}4,2h[8:1],,5,3,5,4,6,{8}5-2[8:1],{16},5,{8}5-8[8:1],
,5,2,1,{16}3-7[8:1],4,3,4,{4}3,
{8}8h[8:1],{16}5,7h[8:1],,4,6,6,5,4,3,3,4,5<4[16:5],,,,,,,,,,,{4}6/5>2[8:1],
6,
{16}6/1-5[8:1],,,6,,,{8}6,6/4qq8[2:1],6,{4}6h[16:1],
{8}6,6h[16:1],{16},,1,2,{4}3/4<7[8:1],3,
{16}3/8-4[8:1],,,3,,,{8}3,3/5pp1[2:1],3,{4}3h[16:1],
{8}3,3h[16:1],{16},,,,8-5[8:1],,,1,{4}8,
{16}8v5[8:1],,,1,{8}8,1,{16}8p4[8:1],1,{8}1,{16},1,{8}1,
{16}8,,,4,4,5,{8}5,{16}1-5[16:1],1,1,1,,8-4[16:1],8,8,
{4}8,8b/1b,{16}2-6[16:1],2,2,2,,7-3[16:1],7,7,
7,,,,,8b/1b,,,6/5>2[8:1],,,6,{4}5,
{16}6/1-5[8:1],,,6,{8}1,6,{16}4qq8[2:1],6,{8}6,{16},6,{8}6,
6,{16}6,6,,,1,2,3/4<7[8:1],,,3,{4}4,
{16}3/8-4[8:1],,,3,{8}8,3,{16}5pp1[2:1],3,{8}3,{16},3,{8}3,
3,{16}3,3,,,,,2-5[16:1],,,8-4[16:1],,,{8}3-7[16:1],
{16},5-1[16:1],,,{8}4,4,{16},7-4[16:1],,,{4}3-8[16:1],
{16}5-1[8:1],5,4,6,{4}5,{16}7-4[16:1],,,1-5[16:1],,,{8}6-2[16:1],
{16},4-8[16:1],,,{8}5,5,{16},2-5[16:1],,,{4}6-1[16:1],
{16}4-8[8:1],4,5,3,{4}4,{16}2-5[16:1],,,4-7[16:1],,,{8}6-1[16:1],
{16},8-3[16:1],,,,,,,,7-4[16:1],,,5-2[16:1],,,3-8[16:1],
,,{8}1-6[16:1],{16},,,,7,8,7,8,,,,,,2,
1,2,{4}1,{16}7,1,5,4,8,2,5,4,
7,6,5,4,2,3,4,5,{2}8h[2:1]/6<4[4:5],
{8},,,5,{4}5,5-1[8:1],
{2}5,1h[2:1]/3>5[4:5],
{12},,,,,,4,4,4,4-8[8:1],,,,,,,,,{4}2/7,
1-5[8:1]/8-4[8:1],
{2}8/1,{16}5,4,5,4,6,3,5,4,
6,3,5,4,{24}6,5,6,3,4,3,{8}5-1[16:1],{16}4,5,,,{8}4-8[16:1],
{16}5,4,,,{8}6-2[16:1],{16}5,6,,,{8}3-7[16:1],{16}4,3,,,6,
5,4,3,,,6,5,4,3/6,7/2,8/1,,,3,4,
5,6,,,3,4,5,6,2/7h[16:3],3,4,5,,,6/8h[16:3],5,
4,3,,,3/1h[16:3],4,5,6,,,7/2h[16:3],6,5,4,,,1/8,
2/7,3/6,4/5,,,3,2,1-5[8:1],8,7,6,{8}5/1,{16}4-8[8:1],3,
2,1,{8}8/4,{16}1,2,3,4,1/5h[4:1],,,6,{8}6,7-3[8:1],
8-4[8:1],7,{16}8,,,6,{8}5-8[8:1],6,{16}5/4,,,3,
{8}4-1[8:1],3,{4}4/5,{16}8-4[8:1],1,2,3,{8}4/8,{16}5-1[8:1],6,
7,8,{8}1/5,{16}8,7,6,5,8/4h[4:1],,,3,{8}3,2-6[8:1],
1-5[8:1],2,{16}1,,,3,{8}4-1[8:1],3,{16}4/5,,,6,
{8}5-8[8:1],6,{4}5/4,{16}4,5,4,5,3,6,4,5,
3,6,4,5,{24}3,4,3,6,5,6,{4}4-8[8:1]*-8[8:1],4b/5b,
{16}7/1,6/2,{8}5/3,{16}2/8,3/7,{8}4/6,{4}5-1[8:1]*-1[8:1],4/5,
{16}2,3,4,5,8,7,6,5,3,2,1,8,4,5,6,7,
1,2,3,4,8,7,6,5,4-8[8:1],3,2,1,{4}4/8,
{16}1,2,3,4,5,6,7,8,{4}1-5[8:1],{16}5/1,6,7,8,
4,3,2,1,5,6,7,8,2,3,4,5,6,7,2,3,
4,5,6,7,1,8,1,7/2,,,,,6,6,5,4,
3,3,4,5,6,6,5,4,,,2/8h[16:3],3,4,5,,,7/1h[16:3],
6,5,4,,,{8}8/1,7/1>4[8:1],6/1,{16}5/1,6,7,8,
{24}5-1[8:1],6,7,8,1,2,{4}3/5,{16}3,4,3,6,5,6,2,4,
2,7,5,7,2,3,2,7,6,7,2,1,2,7,8,7,
1,2,3,4,{4}5/6,{8}6/4>1[8:1],7/4,{16}8/4,7,6,5,
{24}8-4[8:1],7,6,5,4,3,{4}2/8,{8}3-8[16:1],{16}4,3,,,{8}5-1[16:1],
{16}4,5,,,{8}4-8[16:1],{16}5,4,,,{8}6-1[16:1],{16}5,6,,,4-8[8:1],
5,4,5,{8}3,2,2/1,{16}2/1h[8:1],{48}2,3,4,{8}5,8/7,
{16}7/8h[8:1],{48}7,6,5,{8}4,2/1,{16}2/1h[8:1],{48}2,3,4,{8}5,8/7,{16}7/8h[8:1],{48}7,6,5,{8}4,
{16}1-5[8:1],8,1,8,{8}2,3,{16}4<7[8:1],,,3,{8}4,2,
1-5[8:1],2,1/3,{16}4,4-8[16:1],,,{8}4,{16},,5,6,
7/3,8,1/5,2,3/7,4,{8}5/1,{16}2/7h[16:3],3,4,5,,,6/8h[16:3],5,
4,3,,,3/1h[16:3],4,5,6,,,7/2h[16:3],6,5,4,,,8-4[8:1],
1,2,3,{4}4/8,{16}5>2[8:1],,,6,{8}5,7,
8-4[8:1],7,8/6,{16}5,5-1[16:1],,,{8}5,{16},,4,3,
2/6,1,8/4,7,6/2,5,{8}4/8,{16}7/2h[16:3],6,5,4,,,3/1h[16:3],4,
5,6,,,6/8h[16:3],5,4,3,{48},,,,,,{24}8,1,2,4,5,6,1,2,3,
5-1[8:1],6,7,2,3,4,{4}5,{16}8-4[8:1],,,1,{48}8/7,6,{24}5,{48},,,,,,,,{16}1-5[8:1],
,,8,{48}1/2,3,{24}4,{48},,,,,{16}6h[16:3]/3h[16:3],{4},,{24}5,
4,6,3,5,4,6,5,4,3,4,5,{12}6,7b>4[6:13]/2b<5[6:13],{1},,{4},,{16},,{48},{16}1,
2,3,4,1/5h[4:1],,,6,6,,7/8,
{8}7/8,{16}7,6,5,4,3,2,,8/4h[4:1],,,3,3,,2/1,
{8}2/1,{16}2,3,4,5,6,7,{48},,,8,,1,,7,,2,,8,,1,,7,,8,,1,,2,,1,
,8,,{16}7,,2,2,1,8,7,7,5w1[16:1],,,{4}5b,
{16},4w8[16:1],,,{4}4b,
E
