&title=Do it!! Do it!!
&artist=Kraken
&first=0
&des=1,2,3,4,5,6,do it!@N-BEATS
&lv_5=14†
&inote_5=(300){1},,
{1}4h[1:2]/5-1[4:7],,,2b/7b,
{12},,4b-2[8:1],,,5b-7[8:1],,,4b-8[8:1],,,5b-1[8:1],,,4b>4[4:5],,,,,,,,,,
{1},
{16}8-4[8:1]/2,,,,,,,,8-4[8:1],,,,,,,,3,,,,2,,,,1,,7,,1,,7,,1-5[8:1]/7,,,,,,,,1-5[8:1],,,,,,,,6,,,,7,,,,8,,2,,8,7,6,5,4-8[8:1]/2,,,,,,,,4-8[8:1],,,,,,,,3,,,,4,,,,5,,7,,5,,7,,5-1[8:1]/7,,,,,,,,5-1[8:1],,,,,,,,6,,,,5,,,,4,,2,,4,5,6,7,
{8}8-5[8:1]/2,,,,8-5[8:1],,,,4-1[8:1]/6,,,,4-1[8:1],,,,8-4[8:1]/2,,,,8-4[8:1],,,,3,,2,,1,7,1,7,1-5[8:1]/7,,,,1-5[8:1],,,,1>4[8:1],,1<6[8:1],,1-5[8:1],,1,,7,6,7<4[4:1],6,7,,2,3,2>5[4:1],3,2,,8,1,8-4[8:1],1,
{1}8b,,4w8[2:3],,
{8}1-5[8:1]/7,,8,8,1,,7,7,1,,6,6,1,,5,5,1,,4,4,1,,3,3,1,,2,2,1,,1,1,1,,2,2,1,,3,3,1,,4,4,1,,5,5,1,,6,6,1,,7,7,1,,8,8,1,7,1,1,8/2,,7,1,7,,7,2,7,,7,3,7,,7,4,7,,7,5,7,,7,6,7,,7,7,7,,7,8,7b,,7,7,7,,7,6,7b,,7,5,7b,,7,,7/1b,,7/2b,,7/3b,,7/4b,,7/5b,,7/6b,,8bqq6[8:1]/7b-5[8:1],7b/8b,,,
{8}3/4,,4,4,3,,5,5,3,,6,6,3,,7,7,3,,8,8,3,,1,1,3,,2,2,3,,3,3,3,,2,2,3,,1,1,3,,8,8,3,,7,7,3,,6,6,3,,5,5,3,,5/4,,3/6,,2/7,,5/6,,3/4,,2-5[8:1],1/2,1/2,,,7/8,7/8,,1/6,,2/5,,3/4,,5/6,,7-4[8:1],7/8,7/8,,,1/2,1/2,,3/8,,7/4,,6,5,6<1[4:1],4,6,,3,4,3>8[3:1],5,3,,5,4,5,4,
{1}5w1[2:3],,1-5[8:1]*>1[1:6]*<1[1:6],,,,,,,,,,1b,,,,8b,,,,2b,,,,7b,
{2}1-5[8:1],1-5[8:1],1b/8,8,8-4[8:1],8-4[8:1],8b/2,2,2-5[8:1],2-5[8:1],2b/7,7,7-4[8:1],7-4[8:1],7b/1,1,1-5[8:1],1-5[8:1],1b/8,8-4[8:1],8b/2,2-5[8:1],2b/7,7-4[8:1],7b/1,
{8}1-5[8:1],,,,1b/8-4[8:1],,,,8-4[8:1],,,,8b/2-5[8:1],,,,2-5[8:1],,,,2b/7,2/7,,3/6,,3/5,,2/6,7b/1,1/7,1/7,1/7,1/7,1/7,1/7,1/7,
{1}1bv3>4[2:3]/7v5<4[2:3],,
{8}1b,,2b,,3b,,4b,,5b,,6b,,7b-5[8:1]/8bqq6[8:1],7b/8b,,,1/2,,2,1,2,3,2,1,2,4,2,1,2,5,2,1,2,6,2,1,2,7,2,1,2,8,2,1,2,7,2,2,6,5,6,5,6,7,6,5,6,8,6,5,6,1,6,5,6,2,6,5,6,3,6,5,6,4,6,5,6,3,6,6,3,4,3,4,3,2,3,4,3,1,3,4,3,8,3,4,3,7,3,4,3,6,3,4,3,5,3,4,3,6,3,3,7b,8,7,8,6,5,6,5,7b,8,6,5,7b,8,6,,1b/7,,2b/7,,3b/7,,4b/7,,5b/7,,6b/7,,7b-5[8:1]/8bqq6[8:1],7b/8b,,,
{8}3/4,,3/4,6/5,3/4,7/6,3/4,6/5,3/4,7/8,3/4,6/5,3/4,1/8,3/4,6/5,3/4,1/2,3/4,6/5,3/4,1/8,3/4,6/5,3/4,7/8,3/4,6/5,3/4,7/6,3/4,3/4,6/5,3/4,6/5,3/4,6/5,2/3,6/5,3/4,6/5,2/1,6/5,3/4,6/5,8/1,6/5,3/4,6/5,8/7,6/5,3/4,6/5,8/1,6/5,3/4,6/5,2/1,6/5,3/4,6/5,2/3,6/5,6/5,3/4,,3/4,,7-4[8:1],8/7,8/7,,,2/1,2/1,,8/3,,7/4,,6/5,,4/3,,2-5[8:1],2/1,2/1,,,8/7,8/7,,6/1,,2/5,,2/3,4/5,2/3,5/6,2/3,,7/6,5/4,7/6,4/3,7/6,,3/4,6/5,3/4,6,4/5,3/6,4/5,3/6,4/5,3/6,4/5,3/6,4/5,3/6,4/5,3/6,4/5,3/6,4/5,3/6,4b-1[4:1]/5b-8[4:1],E
