&title=アンメルト・アンブレラ
&artist=ASU
&first=0
&des=MYOU
&lv_5=13
&inote_5=(99)
{2},,,
(999){999},
(99)
{48}3h[4:1]/B6,B5,B4,,,,,,,,,,,,,,,,,,,,,,6h[4:1]/B3,B4,B5,,,,,,,,,,,,,,,,,,,,,,
{48}2h[4:1]/B6,B5,B4,,,,,,,,,,,,,,,,,,,,,,7h[4:1]/B3,B4,B5,,,,,,,,,,,,,,,,,,,,,,
{48}2h[4:1]/B6,B5,B4,,,,,,,,,,,,,,,,,,,,,,6h[4:1]/B3,B4,B5,,,,,,,,,,,,,,,,,,,,,,
{48}3>5[8:3]/B6,B5,B4,,,,,,,,,,,,,,,,,,,,,,,,,,,,,,,,,,C,,,,,,,,,,,,
{48}3h[4:1]/6x,5x,4x,,,,,,,,,,4x,,,,,,,,,,,,6h[4:1]/3x,4x,5x,,,,,,,,,,5x,,,,,,,,,,,,
{48}2h[4:1]/6x,5x,4x,,,,,,,,,,4x,,,,,,,,,,,,7h[4:1]/3x,4x,5x,,,,,,,,,,5x,,,,,,,,,,,,
{48}2x-8[32:3]/6x-8[32:3],5x/3x,4x,,,,,,,,,,,,,,,,,,,,,,7x-1[32:3]/3x-1[32:3],4x/6x,5x,,,,,,,,,,,,,,,,,,,,,,
{48}2x/6x,3x/5x,4xh[48:19],,,,,,,,,,,,,,,,,,,6>2[32:7],,,{2}4-8[32:5],
{24}7,,,,,,5,,,7,,,,,,5,,7,5,,,45,,,
{8}3<5[8:1]/4,2,1h[4:1],,5>3[8:1],6,7h[4:1],,
{8}4<6[8:1],3,2h[4:1],,E5,E3,E7,E5,
{8}8<5[8:1],1,2h[4:1],,8>3[8:1],7,6h[4:1],,
{8}8qq6[8:1],1-3[32:3],,,8,57,1,24,
{8}4/5-3[32:3],6,75,6,5-2[32:4],6,75,6,5-1[8:1],6,75,6,5-8[8:1],6,75,6x,
{8}6xh[8:11],2x,B3,4x,B3,2x,B3,4x,E3,1x,B2,3xpp4[16:3]*V14[16:3],E5,,,,
{24}8b/1b,,,3,,3,5,,5,4,,4,7,,7,2h[8:1],,,1-4[8:1],,,8,,,
{24}17,,,5,,6,4,,3>5[24:6],5,,6,4h[4:1],,,,,,,,,,,,
{24}18,,,6,,6,4,,4,5,,5,2,,2,8-4[8:1],,8,3,,3,8,,,
{24}1,,6,4,,3,5,,6<4[24:6],4,,3,5h[4:1],,,,,,,,,,,,
{24}18,,,36,,2,5,,7,4,,2,8<5[8:1],,7,1>4[8:1],,2,8,,,1,,,
{24}8,,3,4,,2,1,,7pp6[24:6],8,,6,5>2[24:2],,,,,,,,,,,,
{4}Cf/1x>8[8:5],,Cf/B1/B8,,
{4}Cf/B2/B7/B1/B8,4h[8:1]/3h[8:1],{32}6h[8:1]/5,,,,7x,8x,1x,2x,5x<3[4:1]/3x>5[4:1],,,,,,,,
{48}3b/5bpp4[4:1],,,{16},,,,,3>5[4:1]*qq4[4:1],3,,,,,,,,,
{12}2h[6:1],4,5,6h[6:1],4,3,24,1,8,4>6[4:1]/6<4[4:1],1,2,
{16}4bqq5[4:1]/6b,,,,,,7xp1[16:3]*<1[16:3],7x,,,,,{24},,,,,2,
{24}8,,7,1,,3,5,,6<4[24:6],4,,3,5h[4:1],,,,,,,,,5x,,,
{8}6-4[32:3],7,6-8[32:3]/2,3,6/2-4[32:3],1,2-8[32:3]/6,5,
{8}6-4[32:3]/2,7,3-7[8:1],2,1V35[32:5]*V75[32:5],,,,
{8}Cf,3h[8:1],4h[8:1],5,46,7,5pp1[16:5]/3,2,
{16}4x/5x,,,2xh[16:4],,,,8x>2[16:1]*<6[16:1],2xv4[8:1]/6xv4[8:1],,,,,,,,
{16}5,3,7,5>2[32:3],6x,,,8-5[32:3],,,1,8,2xh[4:1],,,,
{16}4,2,6,4>5[16:5],5x,,,,,,,,4x,,,,
{16}4,6,2,4<7[32:3],3x,,,1-4[32:3],,,8,1,7xh[4:1],,,,
{16}5,7,3,5<4[16:5],4x,,,,,,E1,C,E5,,2x/7x,,
{4}4xh[16:24]/5x,6,,6,,{16}6,,,,{8}7<5[32:3]*v4[8:1],4>2[32:3],,,
{4}5xh[16:22],2,,2,,{16}2,,1>4[8:1],,{8}4v1[8:1]*pp6[8:1],1,,,
{48}5h[4:1]/B2,B3,B4,,,,,,,,,,6,,,,,,,,,,,,3h[4:1]/B6,B5,B4,,,,,,,,,,2,,,,,,,,,,,,
{48}7h[4:1]/B4,B5,B6,,,,,,,,,,8<2[4:1],,,,,,,,,,,,5xh[8:1],,,,,,,,,,,,8xw4[8:1],,,,,,,,,,,,
{4},,,{16}6x,5x,4x,3x,
{16}5x,4x,3x,2x,4x,3x,2x,1xs5[16:3],{48}E4,B4,B5,E6,,,,,,,,,,,,,,,,,,,,,
{16}4>2[32:3]/6,,,7,7,,5,,4>1[32:4]/6,,,7,7,,5,,
{16}4>8[32:5]/6,,,7,7,,5,,4h[16:1],,5h[16:1]/3h[16:1],,6h[16:1]/2h[16:1],,17,,
{24}28,,7,4,,3,5,,6,1,,2,8-4[8:1],,7,1,,2,8,,,1,,,
{24}37,,6,4,,2,5,,7,1>4[8:1],,2,8<5[8:1],,7,1-5[8:1],,,8,,,1,,,
{24}8b,,3,4,,2,1,,7,8,,6,5,,3,4<7[8:1],,2,1,,,3x/4x,,,
{24}1b,,6,5,,7,8,,2,1,,3,4,,6,5>2[8:1],,7,8,,,6x/5x,,,
{24}8b,,3,4,,2,1,,7,8,,6,5<8[8:1]*>2[8:1],,3,4,,,5x,,,,,,
{24}1b,,6,5,,7,8v1[16:3],,2,1,,,Chf[2:1],,,,,,,,,,,,
{4}1b>4[32:3]*<5[32:3],{64}E8/E2,E3/E7,E4/E6,E5,,,,,{16},,54,2,8h[8:1],Ch[16:1],,,2b/6b,,
{16}45,7,1h[8:1],Ch[16:1],,2/8-4[32:3],,1>4[8:1]/5<8[8:1],,,,,,,,,
{16}37,5,1h[8:1],7h[16:1],,46,,15,6,4,8h[8:1],2h[16:1],,1,17,,
{16}46,5,1h[8:1],7h[16:1],,4/8-4[32:3],,1pp8[32:7]/5pp4[32:7],,,,,,,,,
{16}15,3,8h[8:1],5h[16:1],,7,16,,25,4,8h[8:1],6h[16:1],,7,26,,
{16}14,3,8h[8:1],6h[16:1],,7<4[8:1]/8p3[8:1],,3>8[8:1]/4p7[8:1],,,,,,,,,
{8}8-4[32:3]/6h[8:1],5x,{48}2b/8b,Cf,,,,,{8},1-5[32:3]/3h[8:1],4x,{48}7b/1b,Cf,,,,,{8},
{8}8/6h[8:1],5x,2h[8:1]/8h[8:1],,7h[8:1]/5>2[8:1]*<8[8:1],,5x,,
{48}1x,2x,3x,4x,5x,6x,7x,8x,1x,2x,3x,4x,{16}5x/Cf,,3bqq8[4:1]/7bqq4[4:1],2b/6b,,,,,,,,,
{12}1h[6:1]/5,6,7,8h[6:1]/4,3,2,16,7,4,3>5[4:1]/5<3[4:1],1,6,
{16}3bqq8[32:9]/5b,,,,,,{32}5xp4[32:7]*<4[32:7],6x,{16}7x,,,,,{24},,,,,6,
{24}4,,2,8,,3,5,,7<1[24:6],1,,2,8h[8:1],,,,,,{16}8x,8x,8x,8x,
{8}1x-4[8:1]/7x,2,1-5[8:1]/5,6,1/7-4[8:1],8,3/7-3[8:1],2,
{8}1-4[8:1]/7,2,5-8[8:1],6,7V13[32:5]*V53[32:5],,,,
{8}Cf,2h[8:1],8h[8:1],5,46,28,5pp7[8:1]/3qq1[8:1],1>7[16:3]/7<1[16:3],
{16}5x/3x,,,,,,,1x<7[16:1]*>3[16:1],7xv5[8:1]/3xv5[8:1],,,,,,,,
{1}4b/6b,
