&title=我愛メイデン
&artist=羽生まゐご/初音ミク
&first=-0.43
&des_1=XXS
&des_2=XXS
&des_3=XXS
&des_4=XXS
&des_5=XXS
&lv_5=13
&des_6=XXS
&des_7=XXS
&des=XXS
&inote_5=(96){4},,,,5h[8:5]/4h[4:3],,,,3h[4:3]/Ch[8:5],
,,,6h[4:3]/Ch[8:5],
{2},{4}1-6[8:1],
5/1-4[8:1],1/5-8[8:1],4/5-2[8:1],
5/6,8-5[8:1],8/1,{8}1/8-5[8:1],2x,
{4}3x,1/8-5[8:1],1/8,{8}1/8-5[8:1],2x,
{4}3x,1/8-5[8:1],8/1,{8}1/8-5[8:1],2x,
{4}3x>7[4:1],7<3[4:1],{8}1h[4:1],{4},{8}7,
{4}8/1,8/1-4[8:1],8/1,{8}8/1-4[8:1],7x,
{4}6x,8/1-4[8:1],1/8,{8}8/1-4[8:1],7x,
{4}6x,8/1-4[8:1],1/8,{8}8/1-4[8:1],7x,
{4}6x<2[4:1],2>6[4:1],{8}8h[4:1],{4},{8}2,
1/8,B8/B1,{4}B7/B2/Ch[4:3],,,,7h[4:3]/2h[8:5],
{8},,,,,B4/B5,
{4}B6/B3/Ch[4:3],{2},{4}8-3[8:1],
4/8-5[8:1],8/4-1[8:1],5/4-7[8:1],
3/4,E8/1-4[8:1],1/E6,{8}8/1-4[8:1],7x,
{4}6x,E8/1-4[8:1],1/E6,{8}8/1-4[8:1],7x,
{4}6x,E8/1-4[8:1],1/E6,{8}8/1-4[8:1],7x,
{4}6-8[8:1],4-6[8:1],2-4[8:1],{8}8-2[8:1],7,
{4}8/6,E2/8-5[8:1],8/E4,{8}1/8-5[8:1],2x,
{4}3x,E2/8-5[8:1],8/E4,{8}1/8-5[8:1],2x,
{4}3x,5h[8:3]/4h[8:3],,{8}6/3,{16}2,7,
{8}1<3b[2:1],7/3,{4}Cf,{8},,,3/7,
2/6,1/5,{4}1>4b[8:1]/4<7b[8:1],1/4,8<5[8:1]/5>2[8:1],
8/5,5/1>4b[8:1],5/1<6[8:1],1/5w1b[8:1],
5,3-8[8:1],5-2[8:1],7-4[8:1],
1-6[8:1],1/3-6[8:1],3/8-5[8:1],8/2-4[8:1],
{8}2/7,8,{4}8<5b[8:1]/5>2b[8:1],8/5,1>4[8:1]/4<7[8:1],
1/4,4/8<5b[8:1],4/8>3[8:1],4/8<5b[8:1],
8/4w8[8:1],4,{8}3/6h[4:1],4,{4}5h[4:3],
{8}6,7,{16}8,{8},{16}1,{2}1w5[16:5],
{4},6h[16:3]/4h[8:1],3h[16:3]/5h[8:1],{16}6h[8:1],4h[16:3],{8},,,{4}3h[16:3]/5h[8:1],
6h[16:3]/4h[8:1],{16}3h[8:1],5h[16:3],{8},,,{4}7h[16:3]/4h[8:1],
2h[16:3]/5h[8:1],{16}7h[8:1],4h[16:3],{8},{4}8h[4:1],
{16}3x,7,3,7,2x,6,2,6,1x,5,1,5,
{4}1x-4[8:1],{8}1/8,{16}7,6,{8}5/1-4[8:1],{16}8,7,{8}6/1,5x,
{4}5x/1-4[8:1],{8}8/1,{16}7,6,{8}5/1-4[8:1],{16}8,7,{8}6,{16}5x,5,
{4}5x/1-4[8:1],{8}8/1,{16}7,6,{8}5/1-4[8:1],{16}8,7,{8}6,5x,
5x<8[8:1],6,{16}5/4>1[8:1],{8},{16}4,4/5<8[8:1],{8},{16}5,{8}5/E4,E3,
{4}E2/8-5[8:1],{8}1/8,{16}2,3,{8}4/8-5[8:1],{16}1,2,{8}3/8,4x,
{4}4x/8-5[8:1],{8}1/8,{16}2,3,{8}4/8-5[8:1],{16}1,2,{8}3/8,4x,
{4}4x/8-5[8:1],{8}1/8,{16}2,3,{8}4/8-5[8:1],{16}1,2,{8}3,4x,
4x>1[8:1],3,{16}5/4<7[8:1],{8},{16}4,3/4>1[8:1],{8},{16}4,{8}4/E6,E7,
E8,7/3,{16}7<4b[8:1]/4>1b[8:1],{8},{16}7/4,{4}7/4,{16}2>5[8:1]/5<8[8:1],{8},{16}2/5,
{4}2/5,{16}4/8<5b[8:1],{8},{16}4,{8}4/8>3[8:1],{16}4,4,8/4w8b[8:1],{8},{16}4,
{4}4,{16}6-1[8:1],{8},{16}5,4-7[8:1],{8},{16}3,2-5[8:1],{8},{16}1,
{8}8-3[8:1],7,{16}8/6-4[8:1],{8},{16}7,6/1-4[8:1],{8},{16}8,1/7-5[8:1],{8},{16}8,
{8}7/2,1,{16}1>4b[8:1]/4<7b[8:1],{8},{16}1/4,{4}1/4,{16}8<5[8:1]/5>2[8:1],{8},{16}8/5,
{4}8/5,{16}5/1>4b[8:1],{8},{16}5,{8}5/1<6[8:1],{16}5,5,5/1>4b[8:1],{8},{16}5,
1/5w1[8:1],{8},{16}5,{4}5,{8}7/2h[4:1],5,{4}1h[4:3],
{8}2,3,{16}4,{8},{16}5,{2}5w1b[16:5],
{4},3>7b[4:1],7>3[4:1],{8}E2/B1/B2,B6/E6/B5,
,5,{4}6<2[4:1],2<6b[4:1],{8}E8/B8/B7,B3/B4/E4,
,4,{4}3>7b[4:1],7<3[4:1],{8}1,7h[8:1],
{4},{16}6,5,7,3,4,2,6,5,7,3,4,2,
{8}6/3,7,{4}3V17b[4:1],7V13[4:1],{8}5-8[8:1],5-2[8:1],
5,5,{4}6-8-2[4:1],2V86b[4:1],{8}4-1[8:1],4-7[8:1],
4,4,{4}3>8[8:1]*-8[8:1],3,3-6[8:1]*<6[8:1],
3,3qq5[16:9]/6pp4[16:9],,,,{48}3bxv8[8:1]/7bx-4[8:1],
6x/2x,{24}5x/1x,{48},,,,,{16}2/6,{4}3/7,{48}6bxv1[8:1]/2bx-5[8:1],3x/7x,{24}4x/8x,{48},,,,,{16}7/3,
{4}6/2,{16}4/8<5b[8:1],{8},{16}6/2,{8}4/8>3[8:1],{16}3,2,4/8<5[8:1],{8},{16}6/2,
{4}8/4,{16}5q1[8:1],{8},{16}4,3q7[8:1],{8},{16}2,1q5[8:1],{8},{16}8,
{8}7q3[8:1],6,{16}7/5-3[8:1],{8},{16}5,6/5v8[8:1],{8},{16}5,4/5v2[8:1],{8},{16}5,
{8}5/6,6,{48}6bxv1[8:1]/2bx-5[8:1],3x/7x,{24}4x/8x,{48},,,,,{16}7/3,{4}6/2,{48}3bxv8[8:1]/7bx-4[8:1],6x/2x,{24}5x/1x,{48},,,,,{16}2/6,
3/7,{8},{16}5,5/1>4b[8:1],{8},{16}7/3,{8}5/1<6[8:1],{16}6,7,5/1>4b[8:1],{8},{16}3/7,
1/5<8[8:1],{8},{16}3/7,{8}1/5>2b[8:1],{16}2,3,{8}1/5<8[8:1],{16}8,7,1/5>2b[8:1],{8},{16}7/3,
5/1<6[8:1],{8},{16}7/3,{8}5/1>4b[8:1],{16}4,3,{8}5/1<6[8:1],{16}6,7,1/5w1b[8:1],{8},{16}5,
{4}5,Cf/7p4>5[8:9],,,,4b>1b[8:1],
{1},{8}E7,
E3,{4}C,
{8}6,3,{4}5h[16:3]/4h[4:1],{2}Ch[2:1],
{1}B7/B6/B2/B3,
E
