&title=Phantom Crisis
&artist=t+pazolite vs Yuta Imai
&first=0.119
&des=zouzouzou
&lv_5=14+
&des_5=zouzouzou
&inote_5=
(235){4}2/5h[8:1],,,,{1}7/4h[8:1],
6/3h[8:1],
1/8h[8:1],
{4}5/3,3/5h[4:1],{2}B2/E3,
{4}4/6,6/4h[4:1],{2}B7/E7,
{1}7h[4:3]/2h[4:3],
8bz4[8:5]/1bs5[8:5],
6h[8:1],
5h[8:1]/2-4[8:3],
3h[8:1]/6-8[8:3],
1h[8:1]/2-4[8:3],
1h[8:1]/7-5[8:3],
6h[8:1]/3-1[8:3],
2h[8:1]/7-5[8:3],
8xq5[8:5]/4>1[8:5],
{4}6xh[8:1]/8xh[8:1],8xh[8:1]/6xh[8:1],7xh[8:1]/1xh[8:1],7xh[8:1]/1xh[8:1],
8xh[8:1]/2xh[8:1],8xh[8:1]/2xh[8:1],{2}1-5[8:1]/4-2[8:1],
{8}6,4,7,2,5,3,6,3,
{4}4/8-6[8:1],8x-2[8:1],8x-4[8:1],8x,
5xh[8:1]/3xh[8:1],5xh[8:1]/3xh[8:1],6xh[8:1]/4xh[8:1],4xh[8:1]/6xh[8:1],
{8}7,7,4,4,{2}5x-1[8:1],
{8}3,6,4,7,1,6,2,8,
{4}4-2[8:1],4x-6[8:1],4x-8[8:1],4x,
5xh[8:1]/7xh[8:1],5xh[8:1]/7xh[8:1],5xh[8:1]/8xh[8:1],5xh[8:1]/8xh[8:1],
4xh[8:1]/7xh[8:1],4xh[8:1]/1xh[8:1],4xh[8:1]/7xh[8:1],4xh[8:1]/1xh[8:1],
8<5[4:1],5-1[4:1],1>4[4:1],4x,
{8}1x,1x,6,6,{2}4-8[8:1],
{4}1xh[8:1]/7xh[8:1],1xh[8:1]/7xh[8:1],1xh[8:1]/6xh[8:1],1xh[8:1]/6xh[8:1],
2xh[8:1]/7xh[8:1],2xh[8:1]/5xh[8:1],2xh[8:1]/7xh[8:1],2xh[8:1]/5xh[8:1],
{8}8,8,3,3,6,6,2,2,
{4}5h[4:1],3h[4:1],6h[4:1],1h[4:1],
5-7-4-8[4:3],2,2,2,
3h[4:1],4h[4:1],6h[4:1],7-1-3>2-8<7[1:1],
5,5,5,5,
4h[4:1],B3/B2,6h[4:1],B7/B6,
{8}1,1,7,7,2,2,8,8,
{16}3,4,5,6,7,8,1,2,3/7,6,5,4,3,2,1,8,
{32}7/A2,D3,A3,D4,A4,D5,A5,D6,A6,D7,A7,D8,A8,D1,A1,D2,A2,D3,A3,D4,A4,D5,A5,D6,A6,D7,A7,D8,A8,D1,A1,D2,
{1}2xh[1:1],
{4}B6h[1:1],B5h[1:1],E3fh[1:1],B3fh[1:1],
,,,,7-5[8:1],
3-8[8:1],6-4[8:1],1-5[8:1],
7<4[8:1],3-8[8:1],{2}6-1[8:1]*-2[8:1],
{4}3-5[8:1],6-1[8:1],3-5[8:1],8-4[8:1],
2>5[8:1],6-1[8:1],3-8[8:1],7-4[8:1],
2,{16}1,2,3,4h[16:5],,,,,6,7,8,2bh[16:13]/1b-7-3-6-4b[16:11],
,,,,,,,,,,,,,,,,{4}1-4[8:1],
1/6-8[8:1],6/3-5[8:1],7-4[8:1],
7/3-1[16:3],3/5,7/3,{12}4x/8x,3/7,2/6,
{4}5/1-5[8:1],1/6-8[8:1],6/4-8[8:1],4,
{8}2/6,7/3,{4}8bx-5[8:1]/4bx-1[8:1],{16}Cf,,,,,,,,
{8}4/2,4h[8:1]/2h[8:1],,5/1,{4}5h[8:1]/1h[8:1],{16}8,7,{8}8,
6x/1x,6x/1x,{4}5x-7[8:1]/2x-8[8:1],5-3[8:1]/2-4[8:1],5/2,
{8}1,{16}4,3,{8}4,2,{16}5,4,{8}5,7/1,1/7,
{16}2x,3,4,5,1x,2,3,4,8x,1,2,3,7x,8,1,2x-4-6-8-2[16:23],
{1}Cf,
{4},,,,3h[8:1],
3h[8:1],3h[8:1],3h[8:1],
4b/6h[8:1],6h[8:1],6h[8:1],6h[8:1],
(195){8}5b/2b,3,4,5/2,6/3,4,5,6/3,
(177)4/7,5,6,7/4,5/8,6,7,8/1,
(165)2/7,7/2,{16}4,5,4,5,3,6,3,6,2,7,2,7,
1,8,1,8,1,8,1,8,{32}1,2,3,4,5,6,7,8,1,2,3,4,5,6,7,8,
(155){1}5b/1b-5[0.3871##2.7112],
,(155160),
(165)7bh[#1.454544],
(160){8},{16}2,2,{8}4,{16}7,7,{8}5,{16}3,3,{8}4,{16}6,6,
(158){4}5-1[8:1],5/2-4[8:1],2/8-6[8:1],5/8,
{8}2h[16:1]/4h[16:1],3h[16:1]/5h[16:1],{4}4h[16:1]/6h[16:1],{16}7,5,{8}7,8<5[8:1]/4>1[8:1],4/8,
{4}4b/8b-4[8:1],8/6-1[8:1],3-1[8:1]/6-4[8:1],6b/3b,
(160)8b-4[8:1],7b-3[8:1],6b-2[8:1],5b,
{8}7-4[8:1],6,{4}7/3>8[8:1],3/5-1[8:1],{8}5/2,3h[4:1],
{24}8,7,6,5,,,{8}4/2,4/2,5v6[16:3]/1v2[16:3],2/6,,,{1}7h[8:7]/3<2[8:5],
{8}6/3,{16}4,6,5,7,{8}8/1,2-6[8:1]/1-5[8:1],3/8,{4}1b/2b/Cf,
(175)3-1[8:1],3/8-4[8:1],8/5-7[8:1],{8}5/3,2,
{4}1-5[8:1],1/7-3[8:1],{8}7/1>4[8:1],2,{24}1/5,6,7,8,,,(190){4}1xv6[8:1],
1/3-8[8:1],3/7-5[8:1],{8}7/1-5[0.3158##0.15],2,
(200){4}1/6,{16}8/4-8[8:1],7/3,6/2,5/1,{2}Cf,
(205){8}5/3,3,4/6,6,5/3,3,4/6,6,
5/3,2,6/4,7,5/3,2,1/8,8/1,
(220){16}7,6,{8}5h[8:1],{16}1,2,{8}3h[8:1],{16}6,7,{8}8h[8:1],{16}4,3,{8}2h[#0.1363678],
(235){16}5,1,5,1,6,2,6,2,{32}E8,E1,E2,E3,E4,E5,E6,E7,E8,E1,E2,E3,E4,E5,E6,E7,
(230){1}8bx-4[8:11]`E8,
{16},,,,,,,,,,,,(235),7/2,,,{8}5/3,
5/3,6/4,4/6,,2-5[8:1],,2,
{16}8,7,6,5,1,2,3,4,{32}8,7,6,5,4,3,2,1,{4}8b-4[8:1],
8-5[8:1]/3>1b[8:1],8/3-5[8:1],3/7-4[8:1],7/1-6b[8:1],
1/5-8[8:1],3/5-2[8:1],5,{8}8/7,6/1,
{4}5-8[8:1]/2-6[8:1],2/5-2b[8:1],5,{24}8-4[8:1],7,6,5,,,{4}8,
7-3[8:1]/1-3[8:1],7b-5[8:1]/1b-5[8:1],7b/1b,
4-2[8:1],4/7-3b[8:1],7/1-5[8:1],1/6-8[8:1],
6/4-1b[8:1]*-7b[8:1],4b,8w4[8:1],8b,
6/2-7[8:1],2/6-4[8:1],6/1v4b[8:1],1/5<8[8:1],
{1}5/3q5b[2:1],
{4}7b/1b-5[8:1],1-4b[8:1]/6<8[8:1],1/6-4[8:1],6/2-5[8:1],
2/8-3[8:1],8/4-1b[8:1],6/4-7[8:1],4,
{8}1/2,3/8,{4}4-1[8:1]/7-3[8:1],7/4-7b[8:1],4,
{24}1-5[8:1],2,3,4,,,{4}1,{16}4xh[16:1]/6xh[16:1],,,5xh[16:1]/7xh[16:1],,,{8}6xh[4:1]/8xh[16:1],
1x-5[8:1],1x,2-4[8:1],2,7-4[8:1],7,8-3[8:1],8,
{4}5-7[8:1]*-8[8:1],5-3[8:1],5,{24}1bx/8bx,2/7,{6}3/6,
{8}5x-8[8:1],5x,3-1[8:1],3,7,7,2,2,
{24}8,7,6,5,4,3,2,1,8,7,6,5,{4}3>8[8:1]*v5[8:1],A3f,
{2}7h[2:1],{48}B5,E5,,,,,,,,,,,,,,,,,{8}3h[8:5],
,,{4}6,{48}B4,E5,{4},{16},,,{48},{2}8h[2:1],
{48}B7,B6,,,,,,,,,,,,,,,,,{8}2h[8:5],
,,{4}5,{48}B3,B4,{4},{16},,,{48},{4}5pp8[4:3],
2,2,1,
1pp4[4:3],7,7,{16}5z1[8:13],6`5?s1[0.1915##1.6596],7,8,
{1}5?s1b[0##1.6596]*z1b[0##1.6596],
{4},,,7b/3b,
7-4[8:1],7/1-5b[8:1],7b/1>4[4:1],{8}6,7,
{4}8w4[8:1],8b,1w5[8:1],1b,
7-1-3-8[2:1],4,4,{16}5b,4,3,2,
{4}7-4[8:1]/1-5[8:1],7/1,{16}3b,4,{8}2h[8:1],{16}6b,5,{8}7h[8:1],
1-5[8:1],1,6,6,2-4[8:1],2,7,7,
{4}8-4[8:1],4/8<5b[4:1],{8}3,2,{4}1-4[8:1],
1/7,{8}6/3,6,3/5,3,7/4,7,
2,{16}2,4,{8}3,3,7,{16}7,5,{8}6,6,
3/5,2,6/4,7,5/3,1,{16}6/4,,{8}8,
{16}3b,5,4h[8:1],6,,,7b,5,6h[8:1],4,,,{8}7b/3b,7b/3b,
{6}5xh[12:1]/2xh[12:1],6h[12:1]/3h[12:1],7h[12:1]/4h[12:1],1xh[12:1]/2xh[12:1],3h[12:1]/8h[12:1],4h[12:1]/7h[12:1],
{16}5/6-1[8:1],,,4,{8}6x,4,{16}3x-8[8:1],,,6,{8}3x,6,
{16}7x,6,{8}5h[8:1],{16}1,2,{8}3h[8:1],{16}6,7,{8}8h[8:1],{16}4,3,{8}2h[8:1],
{32}7,6,5,4,3,2,1,8,7,6,5,4,3,2,1,8-5[32:5],{4}4-1b[8:1],Cf,
{16}3x,4,3,4,2x,5x,2,5,1x,6x,1,6,{8}8/7b,8b/7,
{16}5x,6,5,6,4x,7x,4,7,3x,8x,3,8,{8}1/2b,2/1b,
{32}E3,E4,E5,E6,E7,E8,E1,E2,D3,D4,D5,D6,D7,D8,D1,D2,E3/D3,E4/D4,E5/D5,E6/D6,E7/D7,D8/E8,D1/E1,D2/E2,E3/D3,E4/D4,E5/D5,E6/D6,E7/D7,D8/E8,D1/E1,D2/E2,
7x,6,{16}5,{32},7x,6,5,1x,2,{16}3,{32},1x,2,3,7x,6,5,4,8x,7,{16}6,{32}2x,3,4,5,,1x,2,3,
{6}8b-4[4:1],4x,3,2h[3:1],7,6,
{16}5b,3,2,4,{4}2h[8:1],{16}4b,6,7,5,{4}7h[8:1],
{12}3b,2b,4b,6b,5b,7b,3b,4b,1b-5[24:5],{48}6b,,,4b,,,,,{12}8b,
{1}Cf,
Cf/B7h[16:0]/E7h[16:0]/B6h[16:0]/B2h[16:0]/B3h[16:0]/E3h[16:0],
E
