&title=ヒバナ[DX]
&artist=DECO*27
&first=0
&lv_5=13
&des_5=刻于晴空玉衡星
&inote_5=
(200){4},,,,{6}6h[6:1],
4h[6:1],5,4/6,3h[6:1],5h[6:1],
4,5/3,7/2,1bp4[8:1]/8bq5[8:1],{3},{4}Cf,
{8}7h[8:1],8,,7h[8:1],{4}1,
2,{8}2h[8:1],1,,2h[8:1],{4}8,
{8}7,6,5,4,1,2,3,4,
2/C,{4},{8}7/C,{4},7b/2b,
6/5,1/8,{8}6,5,7,4,
2/8,6,7/1,3,1-5[8:1]/2-6[8:1],3/8,{4},3/4,
8/1,{8}3,4,2,5,
7/1,3,2/8,6,8-4[8:1]/7-3[8:1],6/1,{4},6/5,
2/8,{8}1,8,2,7,
1/6,7,8/3,2,8-4[8:1]/1-5[8:1],2/7,{4}8/1,
3/6,{8}5/7,7/C,,2/4,{4}2/C,
{8}3/6,{16}4,5,{8}4,2/7,B7/B6,B2/B3,{4}8b/C,
{8}1b/C,{4},{8}5,{4}4,{8}5/6h[8:5],4,
,3,,2,,3,3,6,
6,{4},{8}6,5,4,3,7h[4:1],
,8h[4:1],,1,{4},7/2,
{8}4/2,4h[2:1],,3,3,2,2,6,
,7/5,5h[2:1],6,{2},{8}6/3,
7,2,B6,B3,8,1,B7,
B2,7,2,B6,B3,C,{4}2b/7b,
4/5,{8}8/7-4[8:1],6,{4}7/8,{8}1/2-5[8:1],3,
{4}2/1,{8}8/7-4[8:1],6,{4}7/8,{8}5/6-1[8:1],7,
{4}6/5,{8}4/3-8[8:1],2,{4}3/4,{8}6,7/5,
,5/4,,4/2,,6,{4}6,
4/5,{8}7v4[8:1]/8-4[8:1],6,{4}7/8,{8}2,1/3,
,1/8,,6/8,,3,{4}3,
{8}2/7,3,6,B2,B7,4,5,B3,
B6,3,6,B2,B7,C,{4}6b/3b,
3q6[8:3]/4q5[8:3],3/4,,{8},6/4,
,4,5,4,{4}5,3/5,
5p4[8:3]/6p3[8:3],6/5,,{8},3/5,
,5,4,5,4,5,{4}6/4,
8,7/1,1,2/8,
7/1,8/5,2/8,1/4>5[8:5],
{32}4/2-7[4:1],{4},{32}E2,B1,B8,{8}E8f,{4},3b/6b,
{2},{16}5,4,{8}5,{4}3/6,
8-6[8:1]/1-5[8:1],1-3[8:1]/8-4[8:1],8/1,{8}7h[8:3],2v5[8:1],
,2,6,4,{4}1-5[8:1]/8-4[8:1],1/8,
6/7-4[8:1],8/7,3/2-5[8:1],{8}2/1,7h[4:1],
,8,2h[4:1],1,{4}1b,C,
8-4[8:1],8w4[8:1],8,{8}2,2,
,5,4,6,{4}4-8[8:1]/5-1[8:1],4/5,
7/6-1[8:1],5/6,2/3-8[8:1],{8}3/4,6h[4:1],
,5,3h[4:1],4,{4}4b,7-5[8:1],
7/8-4[8:1],8/1-5[8:1],1/2-4[8:1],2,
1-5[8:1]/8-6[8:1],1/8,1-3[8:1]/8-4[8:1],1/8,
7/8-4[8:1],6/8,2/1-5[8:1],{8}3/1,3h[8:3],
,7,7,7,{4}2/6,5/2-4[8:1],
2/1-5[8:1],1/8-4[8:1],8/7-5[8:1],7,
8-4[8:1]/1-3[8:1],8/1,8-6[8:1]/1-5[8:1],8/1,
{8}4,3,7,8,{4}4/2-6[8:1],{8}2,7-3[8:1],
,7,4,5,{4}2b/7b,4/5,
{8}8/7h[4:1],8,{4}8,{8}1,8/2h[4:1],,7,
{4}6/3q6[4:1],3/6,,8/7,
{8}1/2h[4:1],1,{4}1,{8}8,1/7h[4:1],,2,
{4}3/6p3[4:1],6/4w8[8:3],{2},{8}3/4h[4:1],
3,{4}3,{8}5/2h[8:1],5,,6,
{4}5/6-4[8:1],6/2-6[8:1],7/2,4/5,
{8}6/5h[4:1],6,{4}6,{8}4/7h[8:1],4,,3,
{4}4/3-5[8:1],3/7qq3[2:1],{2}2/7,
{1}Ch[4:3],
{4}5q4[8:3]/6<3[8:3],6/5,,{8},3/4,
,5h[8:1],4,4h[8:1],{4}5,5/6,
4p5[8:3]/3>6[8:3],3/4,,{8},6/5,
,4h[8:1],5,5h[8:1],{4}4,4/3,
7,8/6,2,3/1,
5/6,5/7,3/4,2/4>5[8:5],
{32}4/2-7[4:1],{4},{32}E2,B1,B8,{8}E8f,{4},3b/6b,
,,,5<4[8:5],
{32}5/7b-2[4:1],{4},{32}E8,B8,B1,{8}E2f,{4},2b/7b,
{1},{4}3h[2:3]/B5,
B5,B7,B7,
B4,B5,B6,B7/B2,
6h[4:3]/B4,B4,B3,B3,
2q5[8:3]/7p4[8:3],2/7,,1q6[4:1],
6q3[4:1],3q8[4:1],8q5[4:1],C,
7h[4:1],6,7v4[8:1]/2v5[8:1],2/7,
2h[4:3],4,6,C,
3p8[8:3]/6q1[8:3],6/3,,7,
7h[4:7]/1-3[8:1],1,8-4[8:1],8,
1-3[8:1],1,8-4[8:1],8,
3,2/4,6,{8}5/7,5/7h[8:3],
,5,4,3,{4}7/2,8/1,
2h[4:7]/8-6[8:1],8,1-5[8:1],1,
8-6[8:1],8,1-5[8:1],1,
6,7/5,3,{8}4/2,4/2h[8:3],
,5,6,7,{4}1b/8b,4/5,
4-2[8:1]/5-1[8:1],5-7[8:1]/4-8[8:1],4/5,{8}3h[8:3],6v1[8:1],
,6,2,8,{4}5-1[8:1]/4-8[8:1],5/4,
2/3-8[8:1],4/3,7/6-1[8:1],{8}6/5,3h[4:1],
,4,6h[4:1],5,{4}5b,1-5[8:1],
1w5[8:1],1,3-7[8:1],{8}3,6-2[8:1],
,6,{4}3,1-5[8:1]/8-4[8:1],8/1,
3/6,1/8,7v4[8:1],{8}7,2v5[8:1],
,2,7,6,{4}5b/4b,2/7-4[8:1],
7/3-8[8:1],3/6-1[8:1],6/2-5[8:1],2/7,
1-5[8:1]/7-5[8:1],1/7,8-4[8:1]/2-4[8:1],8/2,
6/5-1[8:1],7/5,3/4-8[8:1],{8}2/4,2h[8:3],
,6,6,6,{4}3/7,3/6-1[8:1],
6/2-5[8:1],2/7-4[8:1],7/3-8[8:1],3/6,
4-8[8:1]/6-8[8:1],4/6,5-1[8:1]/3-1[8:1],5/3,
{8}8,7,3,4,{4}8/6-2[8:1],{8}6,3-7[8:1],
,3,8,1,{4}6b/3b,8-5[8:1],
8-3[8:1],8-5[8:1]*-6[8:1],8-3[8:1]*-2[8:1],8-4[8:1],
8-3[8:1]*-5[8:1],8-4[8:1],8w4[8:1],8,
8/6,5/7,1/3,{8}4/2,2/4h[8:3],
,3,2,1,{4}1/8,1-4[8:1],
1-6[8:1],1-4[8:1]*-3[8:1],1-6[8:1]*-7[8:1],1-5[8:1],
1-6[8:1]*-4[8:1],1-5[8:1],1w5[8:1],1,
{1}7h[8:11]/2h[8:11],
{2},Cf,
