&title=Who is Queen?
&artist=水谷郁/小川哲弘/平口敏彦/新谷友直/末廣誠/水谷輔
&first=0
&des=PanMSK
&des_5=
&clock_count=4
&lv_6=14
&inote_6=(135){4},,,,{16}5x,
5x,{12},{24}3,{48},5,{24},{48}4,{24},{48}4,{24},7,{48},5,{24},{48}6,{24},{48}4,{24},5,{48},3,{24},{48}4,{24},{48}1x,{6},{12}6bx/Cf,
{48},,,,,2bx/Cf,{6},{24}Cf/8bxq1[24:7],{2},{16}4xh[16:3],
{8},{16}5,{8}4,4,,5,B3,5x,
,5,,{48}5x/E3,B3,{24},,,,,{8}5,4,{16}3,3,
8,7,6,5,1,2,3,4,1,8,7,6,4,3,2,1,
7,7,5,6,3,3,4,2,8,8,1,7b,,7b,,7b,
{8}E1f,5x,{16},3/4,{8},{16}7/1h[16:3],{8},{16}5>2[8:1],{8},7/5,
,6x,{16},3/4,{8},{16}2/8h[16:3],{8},{16}5<1[16:3],{8},6/5,
,5x,{16}5,4h[8:3],{8},{16}8,{8},{16}3<6[8:1],{8},2,
,3x,{16}3,8,{8},{16}2,4,3,5,4,7,,1x,
{8}Cf,4x,{16},6/5,{8},{16}2/8h[16:3],{8},{16}4<7[8:1],{8},2/4,
,3x,{16},6/5,{8},{16}7/1h[16:3],{8},{16}4>8[16:3],{8},3/4,
,4x,{16}4,5h[8:3],{8},{16}1,{8},{16}6>3[8:1],{8},7,
,6x,{16}6,1,{8},{16}8/E3f,{8},{16}1/E7f,{8},8/Cf,
8xh[8:1],{32}B4,E5,{16},8h[8:1],{8},{16}4,{8}8h[8:1],5,8h[8:1],2,
8xh[8:1],{32}B4,E5,{16},8h[8:1],{8},{16}4,{8}8h[8:1],5,{4}5h[8:1]/6h[8:1],
{8},{32}B5,E5,{16},2h[8:1],{8},{16}5,{8}2h[8:1],4,2h[8:1],7,
2xh[8:1],{32}B5,E5,{16},2h[8:1],{8},{16}5,{8}2h[8:1],{16}4,4,1,6,3,5,
{8}3,{16}2,4,{8}2,{16}3,4,{8}3,{16}2,4,{8}2,{16}3,4,
{8}3,5/4,{16}6,5,8,8,5,6,8,8,{4}1xh[8:1]/5xh[8:1],
{8},{32}E3,B3,{16},6h[8:1],{8},{16}1,{8}6h[8:1],4,6h[8:1],2>5[8:1],
,{32}5,6,7,8,{16},1x,1x,4,5,2,4,3,7,5,{8}6,
E1f,3/4,{16},6/5-1[8:1],{8},{16}8,{8},{16}6<3[16:3],{8},1/6,
,4,{16},5/2-5[8:1],{8},{16}7,{8},{16}8qq1[16:3],{8},2/8,
,3,{16}4<7[8:1],4,{8},{32}1,2,{16}3,,8x-4[8:1],{8},1,
,2/5,{16}7,7/8,,{32}1,2,{16}3b/E5,{8},{16}6b/Cfh[16:5],{4},{32}6,
7,{16}8,1x<6[8:1],4,{8}4p2[4:1],1b,,5,5h[4:1],1,
{32}8,7,6,5,8/4,7/3,6/2,5/1,{4}4h[8:5]/8-2-7-3[8:3],{2},{16}5,
5,3<6[8:1],8,2,8,{8}3,{16},7h[16:3],,8,{8}8-4[8:1],6/1-5[8:1],
8,1,{16}6,6h[16:3],,{32}4,3,{8}2-6[8:1],8,2,5h[8:1],
{32}8,1,{16}2,3x>8[8:1],4,{8}4,3b,,6,6/5,8/4h[8:1],
{32}1,2,3,4,5/1,6/2,7/3,8/4,{4}5h[8:5]/1qq6[8:3],{2},{8}4,
7/1,{24}6,5,4,3/2,{48},,,,,,,{16}1/8,,6,4,8,{24}2,3,4,
{8}6b/5b,8/7,6b/2b,{16}5pp8[4:1]/1pp3[8:1],5b/1b,{2},{16}B2f/E3,
E7,E6,E5,{8}E4,{16}1,1h[16:7],{8},2,4,6,
{16}7/8,{8},{32}1/6,5/2,{4}4h[16:7]/3<2[8:3],,{16}E5,E6,E7,E8,
3x,3x,1,2,8,1,{8}7h[2:1],{16},6,,4,{8}4,2,
1/8,5/6,{16}3,5,2,4,1,1,4,2,{8}5,7/4,
{32}8bx,B8,{16}C,{8}1,{16}4x,1,,1xh[16:1],3,1h[16:1],5,1h[16:1],{8}7,5/2,
{32}3x,E4,{16}E5,{8}8,{16}5x,8,,8xh[16:1],6,8h[16:1],4,8h[16:1],{8}2-6[32:3],7,
2b,{16}8,8,5,6,3,3,{24}7,6,5,1,2,3,8,7,6,3,4,5,
6,7,8,1/5,{48},{16}1x/5x,,4/3,{8}4/3,{16}8,8,,2/6,{8},8/4,
E7/B7/Cf/B3/E3,1x,{16}7,5,,2,4,3,1-5[8:1],2,{4}4h[8:1],
{8},6x,{16}3,4,,6,5-2[8:1],8,4-8[8:1],6,{8},,,2,
{16}6,5,,1,7-4[8:1],3,8-3[8:1],1,{8}7,8,
{16}6,6,4,5,2,2,1,3,{8}7-3[8:1],3-7[8:1],7,1x,
Cf,8x,{16}2,4,,7,5,6,8-4[8:1],7,{4}5h[8:1],
{8},3,{16}6,5,,3,4,1,5,3,{8}8qq4[4:1]*pp4[4:1],2/6,
8b,{4},{16}2>7[16:3],2,{8}4,2,,8h[8:1],
{16}1,7,1,7,2,6,2,6,3,5,3,5,{32}4,5,6,7,8,1,2,3,
{8}Cf,1h[8:1]/8h[8:1],{16},2h[8:1]/5h[8:1],{8},{16}4h[8:1]/6h[8:1],{8},{16}8/C,{8},{32}7/1,6/2,5/3,4,
{8},1h[8:1]/7h[8:1],{16},6h[8:1]/4h[8:1],{8},{16}5h[8:1]/2h[8:1],{8},{16}1/C,{8},{32}2/8,3/7,4/6,5,
{8},2/8,{16}6/5-1[8:1],5/6,,3x,{8}5,{16}4,4h[16:3],{8},{32}1,8,7,6,
{8},3,{16}3,8,,8,2,4,3,5,4-8[8:1],6,,6,
{8}4b`Cf,5h[8:1],{16},7h[8:1]/4h[8:1],{8},{16}5h[8:1]/3h[8:1],{8},{16}1h[8:1]/C,{8},{32}2/8,3/7,4/6,5,
{8},8h[8:1]/2h[8:1],{16},3h[8:1]/5h[8:1],{8},{16}4h[8:1]/7h[8:1],{8},{16}8h[8:1]/C,{8},{32}7/1,6/2,5/3,4,
{8},7/1,{16}3/4-8[8:1],4/3,,6x,{8}4,{16}5,5h[16:3],{8},{32}8,1,2,3,
{8},6,{16}6>3[8:1],1,,1-5[8:1],6b,{8},{16}1b,{8},8b,
{1}Cf/B6/B2/E3/E7`E6`E2,
E
