&title=TAIDADA
&artist=ずっと真夜中でいいのに。
&first=0
&lv_7=【狂】14?
&des_7=-NICOLABULA-
&inote_7=
(144){4},{8},{24}6,5,6,{8}4b/7b,7b/4b,{16}6,5,6,4,
5,4,{8}6,{16}3,6,3,5,{4}3h[4:1],{32}1b,8,7,6,{16}5,1,
1,4,{8}4h[8:1],{32}8b,1,2,3,{8}4,{4}5/3h[4:1],{32}1b-4-1[4:1],8,7,6,{8}5,
{4}1/5b-8-5b[4:1],5,3h[4:1],{32}1b,8,7,6,{16}5,1,
1,4,{8}4h[8:1],{32}8b,1,2,3,{8}4,{4}7/3h[4:1],{32}1b,8,7,6,{16}5,1,
1,4,{8}4h[8:1],{32}8b,1,2,3,{8}4,{4}5/3h[4:1],{32}1b,8,7,6,{16}5/3,3,
4-6[8:1],4,2,2,{4}4b,4/6h[4:1],{32}8b-5-8[4:1],1,2,3,{8}4,
{4}8/4-1-4b[4:1],4,6h[4:1],{32}8b,1,2,3,{16}4/6,6,
5-3[8:1],5,7,7,{4}5b,{16}7/E3/B3,{8},{16}6/E2/B2,{8},5/E1/B1,
{16},4/E8/B8,{8},4/8,{64}E1/E5,B1,B5,B2,B6,E3,{32}E7,{4}7xh[16:3]/3xh[16:3],{8}7/3,6/4,
{16}4,5,,3,{8}4,{16}3,4,{4}2h[16:3]/5h[16:3],{8}5/2,3/4,
{16}3,4,,4,{8}5,{16}6,5,{4}7h[16:3]/4h[16:3],{8}7/4,6/5,
{16}6,5,,5,{8}4,{16}3,4,5/2h[16:3],{8},{16}4,{8}2/5h[4:1],3,
{16}4,5,,5,{8}6,7h[8:1]/4h[8:1],{64},B7/B4,{16},,,{32},{8}1/7h[8:1],8h[4:1],
,6h[8:1],{4}8,{8}8/2h[8:1],{16}8,2,{8}8,1/3h[4:1],
,4h[8:1],{4}3,4/7h[4:1],{8}8h[8:1],6h[4:1],
,5h[8:1],{4}6w2b[8:1],{2}6b,
,{8}7h[8:1],{16}5,5,{8}6h[8:1],4,
{16}6,7,8,1,5,4,3,2,1/6h[16:3],{8},{16}8,{8}6,6/5-8[8:1],
,5/3,2h[8:1],{16}1,2,{8}8h[8:1],{16}2,2,{8}7h[8:1],{16}1,1,
7,6,5,4,1,2,3,4,5/7h[16:3],{8},{16}5,{8}6,4/7,
{16}6,5,6,5,6,4,5,4,{4}6/3<6[8:1],{8}3/8,7-2[8:1],
,7/4,{4}3-6[8:1],{16}3/8,{8},{16}7,{8}5,4/6h[4:1],
,1,{16}1,7,1,7,8/2-5[8:1],{8},{16}1,{8}2,8-5[8:1],
,8/2,3,4,{16}4,5,2,7,4,5,{8}6b/3b,
8b/1b,8b/1b,6b/4b,2b/8b,(143.5){2}4/6>7[8:3],
{64}A2f,B2,{32}C,{16},,,6-4[8:1],5,6,5,{4}6,{16}3-5[8:1],4,3,4,
{4}3b,{8}6/4-1[8:1],3/5,{4}4/2V46[16:3],2/8,
{64}A7f,B7,{32}C,{16},,,{8}3h[8:1],7h[8:1],4h[8:1],{64}A7f,B7,{32}C,{16},{8}2,2h[8:1],
{64}A7f,B7,{32}C,{16},,,{8}5/3,1/7,{2}5/3<2[8:3],
(144){64}A7f,B7,{32}C,{16},,,{8}3/5,{16}5,3,{8}4h[8:1],{16}3,5,,4/6,,7/5,
,6,5,7,{8}4-6[8:1]*-2[8:1],3/5,{4}4w8[8:1],4,
{16}7,8,6,1,5-1[8:1],2,5,3,{2}5bpp2[2:1],
{3},{24}1,8,1,8,{8}1,5/4,{16}2/7,7/2h[8:1],,8,
2,6,4,5,3,7,{8}1h[2:1],,3,5,7,
{4}1-5b[8:1],Cf,{8}4/7-4[8:1],{16}8,1,{8}7/2-5[8:1],{16}1,8,
{8}2/6,{16}7h[16:1],8,,5h[16:1],{8}4,8b/2b,{16}6,5,{8}6,8b/2>6[4:1],
,2/6,7,8,1h[8:1],{16}4,8h[8:1],,2,{8}6h[8:1],
8,{16}8,5,1,6,2,7,{8}8b/2b,{16}6,4,{8}8b/2b,{16}6,4,
{8}8b-5[8:1]/2b-5[8:1],{16}6,4,{4}8b/2b,{32}6b-3[8:1],7,8,1h[32:5],{8},{4}6b,
{8}2/8,{16}7,7,{8}4,3/7,6/2-6[8:1],5/1,{4}2b/4V68[8:1],
{8}4/2-6[8:1],1,{4}2b/4V68b[8:1],{8}4/2-6[8:1],1,{4}2b/4h[4:1],
{16}2,4,2,4,3,5,3,5,{8}6bx/2bx,{16}8b/1b,1b/8b,{8}1b/8b,{16}7b/2b,7b/2b,
{8},{16}3,6,4-1[8:1],5,3,5,{4}4-7[8:1],4,
{24}8bx,1x,2x,8bx,1x,2x,8bx-5[8:1],1x,{6}2x,8-3[8:1],{12},{4}8,
{24}5bx,4x,3x,5bx,4x,3x,5bx-8[8:1],4x,{6}3x,5-2[8:1],{12},{4}5,
{24}8bx,1x,2x,8bx,1x,2x,8bx-5[8:1],1x,{6}2x,8-3[8:1],{12},{4}8<5[8:1],
8>3[8:1],{32}8/4,5,6,7,{8},{16}8/4x,7/3,6/2,5/1,{8}8/4h[4:1],{16}8,1,
{8}2h[8:3],{16}4,5,6,7,{8}8h[8:1],2-4[8:1],1,2/8-6[8:1],1,
8,{16}4,3,2,1,{8}8h[8:1],{16}4,1/5,2/6,3/7,8/4,5,6,7,
{32}8h[8:1]/4h[8:1],{8},{32}1x/5x,2x/6x,3x/7x,{4}8xh[8:1]/4xh[8:1],{16}8b/4b,4b/8b,,6b/3b,{8}6b/3b,{16}5b/1b,5b/1bh[16:7],
,,,3,4,5,6,7,{8}8/4h[8:1],7,7/5h[8:1],7,
{16}4h[8:1]/7h[8:1],{8},{16}6/5,{8}4/7,7/4h[8:1],{4}8-3[8:1],4/8-5[8:1],
{8}8/2,{16}2,2,{8}6,3/7,{4}4/8-3[8:1],{8}8-6[8:1],5h[8:1],
8-3[8:1],4h[8:1],{4}8-6[8:1],{8}8-4[32:3],{16}3,3,{8}8-6[8:1],{16}2,2,
{8}8,{16}2,2,8,1,7,2,{8}6/3h[8:1],6,6/4h[8:1],6,
{16}3h[8:1]/6h[8:1],{8},{16}5/4,{8}3/6,6/3,6/3,4/5,{16}6/3,5/4,{8},{4}3h[8:1]/5h[8:1],
{8}2-5[32:3]/6-1[32:3],7/3,{4}6/2,{8}8-3[8:1],4h[8:1],
8-5[8:1],4h[8:1],8,2h[8:1],8b,{16}3,4,{8}2b,{16}6,5,
{8}7b,{16}3,4,{4}1bh[4:1],{16}8,1,7,2,6,3,5,4,
4,4,4,4,{8}4b,1b/7b,{16}1,7,2,6,3,5,4,4,
4,4,4,4,{8}4b,1b/7b,{16}3,5,4,6,{8}1b/7b,{16}7,5,
6,4,5,3,{8}8b/2b,3/7,{16}6b/3b,4,5,4,{8}3/6b,{16}5b,4,
5,4,5,3,6-1[8:1],4,6,4,{4}6-4[8:1],{8}6,3h[4:1],
{4}8-6[8:1],{8}8,4h[8:1],{16}5,{8},{16}3,{8}5,4/2-5[8:1],
,2,{4}8h[4:1],{16}2,8,1,8,3,8,1,8,
4,8,1,8,5,8,1,8,{4}6b-2[8:1],5-1[8:1],
{2}4-8[8:1],5h[2:1]/1h[16:11],
{4},{8},1/5,8b/2b,{16}6,5,{8}6,8b/2>6[4:1],
,2/6,7,8,1h[8:1],{16}4,8h[8:1],,2,{8}6h[8:1],
8,{16}8,5,1,6,2,7,{8}8b/2b,{16}6,4,{8}8b/2b,{16}6,4,
{8}8b-5[8:1]/2b-5[8:1],{16}6,4,{4}8b/2b,{32}6b-3[8:1],7,8,1h[32:5],{8},{4}6b,
{8}2/8,{16}7,7,{8}4,3/7,6/2-6[8:1],5/1,{4}2b/4V68[8:1],
{8}4/2-6[8:1],1,{4}2b/4V68b[8:1],{8}4/2-6[8:1],1,{4}2b/4h[4:1],
{16}2,4,2,4,3,5,3,5,{8}6bx/2bx,{16}8b/1b,1b/8b,{8}1b/8b,{16}7b/2b,2b/7b,
{8},5/4,{16}3,4,3,4,{8}2-8[8:1],{16}5,5,{8}2-5[8:1],{16}6,6,
{8}2,8h[8:1],{24}6,8,5,7,4,6,{8}3-5[12:1],{16}7,2,{8}3/8-6[8:1],1,
8,2h[8:1],{24}4,2,5,3,6,4,{4}7h[4:1],{8}1,{16}8/6,6/8,
,3,4,2h[16:5],{4},{16}1,2,{8}8,1/7h[8:1],{16}5,6,
{8}5h[8:1],6h[8:1],1h[8:1],{16}8,8h[16:9],{4},{8},7,
{24}7,6,5,4,3,2,{12}1h[4:1],,3,{24}3,4,5,6,7,8,1,2,3,4,5,6,
7,8,1,2,3,4,{4}5,{32}5/7,{16},{32}6/4,{16},{32},5/3,{16},4/2,,2/4,
,2,4,3,{8}5,{16}4,5,{32}4b,3,2,1h[32:5],{8},8,8,
{24}8,1,8,1,7,2,7,2,6,3,6,3,{32}5h[24:5],{16},,,{32}4h[16:3],{16},,{32},3h[16:3],{16},,{32},2h[16:3],
{16},,{32},1h[16:3],{16},,{32},8h[16:3],{16},,{32},7h[32:7],{16},,,{8}6h[32:7],
{16},{32},5-1[32:21],{1},{16},{32},E6,
B5,B4,{16}E4,
