&title=恋ひ恋ふ縁
&artist=Famishin; KOTOKO
&first=0.2
&des=diffsoft
&lv_5=13
&inote_5=(144)
{8},,
{8}1,2,3,4qq7[8:3],,4,7>4[8:3],6,5b,5b,5b,5b,,
{16}5/2>4[8:1],6,7,,2,,
{8}5,6,7,8,1,2,3,4,
{8}5/6-8[8:1],7,56,4qq8[8:3],,4/5-7[8:1],,5,,78,18,1<5[8:2]/2,,
{8}12,3,4,3-8[8:1]/4,2,34,5p8[4:1],,5/8<5[8:2],1,2h[4:1],,,3,4,,5,6,7,
{8}8/7-5[8:1],6,87,1pp5[8:3],,1/8-6[8:1],,8,,65,45,4<8[8:2]/3,,
{8}43,2,1,2-5[8:1]/1,3,21,8q5[4:1],,8/5<8[4:1],4,3h[4:1],,,2,1-4[4:1],,,,,,
{8}8,7,6,,2,3,4,,7,3,6,4,5,3>6[8:3],3,3h[4:1],,,2h[4:1],,
{16}8,7,6,,34,,8,7,6,5,1>4[8:3],,5,,5,,6,,7,,8,,,,
{8}1,2,1,,7,6,7,,2,6,3,5,4,6<3[8:3],6,6h[4:1],,,
{16}5,6,7,,21,,5,6,7,8,4>1[8:3],,8,,8,,7,,6,,5,,
{8}2p5[8:1],5>1[4:1],2,,8,8<4[8:2],,8>3[4:1],,8q4[4:1],,8v5[4:1],,8,,,,
{8}7<4[4:1],7,,1>4[8:3],1,,4<6[8:2],,6<8[4:1],,8>2[4:1],,2>4[4:1],,,
{8}5,6,7,,28,3-1[8:1],,3/8-4[8:1],,5-7[8:1]/8,,5/8-4[8:1],,3qq3[8:2]*pp3[8:2]/8,,
{8},,,
{8}5,6,7,8b,,12,,34,,5-1[2:1],5,5,5,5,,,
{8}4pp2[2:1],,,,7,,,,8<3[2:1],,,,2,,,,1s5[2:1],,,,6,,,,7-3[2:1],,,,2,,,,
{24}2p5[8:3]/5,,,,,,
{8}26,7,8q4[8:3],,48,3,2,2,2w6[8:1],2,2b,,7,1,
{8}7<4[4:1],,4>1[4:1],,1<6[4:1],,6>3[4:1],,3>8[4:1],,8<5[4:1],,5>2[4:1],,2<2[8:5],,
{8}5,4,3,2,1,
{8}8,1/7<4[8:1],,2-5[8:1]/7,1,2/4pp7[8:4],6,34,,,,,
{8}2>5[8:1]/8,1<5[4:1],2/5,1,2,3q5[8:3],,3,,6,7,8v5[8:1]*v3[8:1],,8,,
{8}1/2>4[8:1],3,1p5[4:1]*<5[4:1]/2,8,1,,,,
{8}4p6[8:2],,4/6>1[8:3],7,8,
{16}8,7,6q7[2:1],,5,,6,,
{8}4,3,2,1,8,7p5[2:1]*>5[2:3],6,7,,,,,,,7,7,7,7,7,7,{8}1,8/2>5[8:1],,7-4[8:1]/2,8,7/5qq2[8:4],3,65,,,,,
{8}7<4[8:1]/1,8>4[4:1],7/4,8,7,6p4[8:3],,6,,3,2,1v4[8:1]*v6[8:1],,1,,
{8}8/7<5[8:1],6,8q4[4:1]*>4[4:1]/7,1,8,,,,{8}8p2[8:2],,5,4,3p5[4:1],,6,7,8p2[4:1],,5,4,
{8}3p5[4:1],,5p7[4:1],,7p1[4:1],,1p3[4:1],,3>5[2:1],,,,5qq5[4:2]*pp5[4:2],,,,,,,,
//{8}4/3-1[8:1],2,43,5pp1[8:3],,5/4-2[8:1],,4,,21,81,8>4[8:2]/7,,
{8}87,6,5,6-1[8:1]/5,7,65,4q1[4:1],,4/1>4[8:2],8,7h[4:1],,,6,5,,4,3,2,
{8}1/2-4[8:1],3,12,8qq4[8:3],,8/1-3[8:1],,1,,34,54,5>1[8:2]/6,,
{8}56,7,8,7-4[8:1]/8,6,78,1p4[4:1],,1/4>1[4:1],5,6,,5,6,7,8,1,2,3b/4b,,
{8}5-1[8:1]/6-8[8:1],56,5b/6b,
