&title=Macrocosmic Modulation
&artist=JAKAZiD
&first=0
&des=rurudo
&lv_5=14
&inote_5=(170)
{1},,
{8}7b/2b>1[4:10],,,8,{16}8,,,7,,,6h[1:1],,
{8},,,,,,,,
{16}E5,E4,E3,,{8},,,,,,
{8}2h[8:2]/4h[8:2],,,,6h[8:2]/5h[8:2],,,,
{8}8/1<2[4:10],,,2,{16}3,,,4,,,4h[1:1],,
{8},,,,,,,,
{16}E8,E7,E6,,{8},,,,,,
{8}1-3[8:1]/6,,,4-7[8:1],,,2>5[8:1],,
{8}8bqq4[4:6],,,1,{16}1,,,2,,,3h[16:14],,
{8},,,,,,,3,
{16}5,4>1[16:7],6h[8:5],,,,,,,,,,,,,,
{8}8h[8:2]/7h[8:2],,,,3h[8:2]/5h[8:2],,,,
{8}2pp5[4:6]/8,,,8,{16}8,,,7,,,6h[16:14],,
{8},,,,,,,6,
{16}4,5<1[16:7],3h[8:9],,,,,,,,,,,,,,
{8}8,,7,,{16}6,5,,4/5,,3,4,,
{8}2b>5[8:1]/6b,,2,8-4[8:1],,8,1,1,
{16}2/6,,3/5,,{32}E8,E7,,,,,E3,E4,,,,,E7,E6,,,,,E2,E3,,,,,
{8}8x-6[32:3],,2,1x<3[8:3],,,,1x-5[32:3],,,2,1xw5[8:1],,,,,
{8}3x/7x<4[8:1],,7,1-5[8:1],,1,8,,
{16}4,6,4,5,3h[8:1],,,5h[8:1]/6h[8:1],,,2h[8:1]/4h[8:1],,,1h[8:1]/7h[8:1],,,
{8}8x-4[8:1],,2,3x-5[8:1]*-7[8:1],,,,1,
{16}2,4,2,4,3<6[8:1],,,,5bx-2[8:1]*-1[8:1],,7b,,,,,,
{8}8-4[8:1],,8,2-5[8:1],,2,6,6,
{16}7/3,,6/4,,{32}E2,E3,,,,,E7,E6,,,,,E3,E4,,,,,E8,E7,,,,,
{8}1x-3[32:3],,7,8x>6[8:3],,,,8x-4[32:3],,,7,8x<3[16:3],,3,1bx,,
{8}2/4,3,7/5,6,2/4,3,7/5,6,1/4,3,8/5,7,2/6,3/4,2/8,6/5,
{48}1b>8b[8:12],,,,,,{8},,,,,,,{16},{8}1xh[1:0],,,,,,,{16},
{16}2b/6b,,,,3-5[8:1],,,2h[8:1]/4,,,,,3-7[8:1],,,2h[8:1]/4,
{16},,,,3<6[8:1],,,4/2v5[8:1],,,,,8,,,,
{16}7/3,,,,6-4[8:1],,,7h[8:1]/5,,,,,6-2[8:1],,,7h[8:1]/5,
{16},,,,6>3[8:1],,,5/7v4[8:1],,,,,1b,,,,
{16}2b/6b,,,,3-5[8:1],,,2h[8:1]/4,,,,,3-7[8:1],,,2h[8:1]/4,
{16},,,,3<6[8:1],,,4/2v5[8:1],,,,,8,,,,
{16}7/3,,,,6-4[8:1],,,7h[8:1]/5,,,,,6-2[8:1],,,7/5,
{16},8x,,,6x/4x,,,2x/5x,,,1-5[8:1],8,2,,3,,
{16}2b,,,,3-5[8:1],,,2/4,,1,,,3-7[8:1],,,2/4,
{16},1,,,3<6[8:1],,,4/2v5[8:1],,1,,,8,,,,
{16}7/3,,,,6-4[8:1],,,7/5,,8,,,6-2[8:1],,,7/5,
{16},8,,,6>3[8:1],,,5/7v4[8:1],,8,,,1b,,,,
{16}2h[384:4]/6h[384:4],,,,3-5[8:1],,,2/4,,1,,,3-7[8:1],,,2/4,
{16},1,,,3<6[8:1],,,4/2v5[8:1],,1,,,8,,,,
{16}7/3,,,,6-4[8:1],,,7/5,,8,,,6-2[8:1],,,7/5,
{16},8,,,6>3[8:1],,,5/7,,8,,,1pp2[16:3]/6,,,,
{24}7x,6,5h[24:4],{16},,,,2,4,3h[8:1],,5,,4,6,,3/5,
{16},,4/7,,,,1,8,1,,2/6,,7qq6[16:3],,,{48}1x,,2x,
{48},3h[48:11],,{16},,,,,8,1,8,,7/3,,4qq3b[16:3],,,{48}8x,,7x,
{48},6xh[48:11],,{16},,,,,5,3,4<7[8:1]*>1[8:1],,,,4x,,,,
{16}3b/5,,,,7/4,,3,5h[16:3],,,1,,3/6,,7,5h[16:3],
{16},,8,,3/6,,2,4h[16:3],,,1,,3qq1[32:3]/7qq5[32:3],,,,
{16},,,,2,6,,3/4,,6,5,,4/7,,,1/8,
{16},1/8,,2,4,,,5/6,,5/6,,4,8qq7[16:3],,,,
{24}2x,3,4h[24:4],{16},,,,7,5,6h[8:1],,4,,5,3,,6/4,
{16},,5/2,,,,8,1,8,,3/7,,2pp3[16:3],,,{48}8x,,7x,
{48},6h[48:11],,{16},,,,,1,8,1,,2/6,,5pp6b[16:3],,,{48}1x,,2x,
{48},3xh[48:11],,{16},,,,,4,6,5>2[8:1]*<8[8:1],,,,5x,,,,
{16}6b/4,,,,2/5,,6,4h[16:3],,,8,,6/3,,2,4h[16:3],
{16},,1,,6/3,,7,5h[16:3],,,8,,2/6,,,{48}1x/4xv3[8:1],,2,
{48},3,,{16},,,6,,,{24}8x/5xv6[8:1],7,6,{16},,,3,,,1,
{16},{24}2x/8x,3,4,{16}5,7-3[8:1],,,1xw5b[8:1],,,,,,,,,
{16}3b/7b,,,,1/8,,,2-6[8:1],,5-3[8:1],,,,,,1-5[8:1],
{16},6-8[8:1],,,,,,4-6[8:1],,7-3[8:1],,,,,2,,
{16}1,,1,,2/8,,,4-8[8:1],,7-5[8:1],,,,,,3x,
{16},2/4,,1,8,,,4x/7x,,,5x/6x,,3,4,,1,
{16}6bx/2bx,,,,8/1,,,7-3[8:1],,4-6[8:1],,,,,,8-4[8:1],
{16},3-1[8:1],,,,,,5-3[8:1],,2-6[8:1],,,,,7,,
{16}8,,8,,7/1,,,5-1[8:1],,2-4[8:1],,,,,,8,
{16},6,5,,3/7,,2,4,,,1w5b[8:1]/8,,,,1,,
{16},,,,3/7,,,4/6,,4/6,,3,4,,,5,
{16}2x,4,3,4,3,4,3,4,2,4,3,4,3,4,3,4,
{16}2x,5,3,4,3,4,3,4,2x,5,3,4,3,4,3,4,
{16}2x,5,3,4,2x,5,3,4,1x-5[8:1],2,3,4,,,,,
{16}4x/6x,,,,3/7,,,2/4,,2/4,,1,8,,,5/7,
{16},6,4,,3/5,,2,4,,6,5,6,4<7[32:3],5,3,4b,
{16},,,,2-5[32:3]*-6[32:3],,,2b,,,,,1<2[16:5],,,1b,
{16},5b,,,1w5[32:3],,,1b,,,,,3x/7x,,,,
{16}2V47[16:4],,2,,7V51[16:4]*V51[16:4],,7,,,,,,2-6[32:3],,,8/2,
{16},7<3[16:3],,,8,,2,,1w5[8:1],,,2/8,,,,,
{16}3x>8[32:4]/7x<4[32:4],,,,,,,,,,1>4[32:3],,,1/7,,,
{16}5x-2[8:1]*v8[8:1],,,,,,,,1,,7,5,,3,4,,
{16}7V52[16:4],,7,,2V48[16:4]*V48[16:4],,2,,,,,,7-3[32:3],,,1/7,
{16},2>6[16:3],,,1,,,,8xz4[16:3],,,3,,,2,,
{16}1x>4[8:1]*<6[8:1],,,,1w5[8:1],,,,1,,,,3/7,,,,
{16}2,5,2,5,3,4,3,4,1,2,3,4,7,6,5,4,
{16}1h[4:1],,,,7,,,2/6,,2/6,,3,5,,,4/7,
{16},4/7,,6,5,,2,4x-8[8:1],,3-1[8:1],,,,,,,
{16}6h[16:3],,,5,4/7,,3,1x-5[8:1],,2-4[8:1],,,,,,,
{16}8h[16:3],,,1,2/6,,3,5x-7[8:1],,4-8[8:1],,,,,,,
{16}7V52[16:4],,7,,2V48[16:4]*V48[16:4],,2,,,,,,7,,,2/6,
{32},,,,8x/3xb,4,5,,,,8x/3xb,4,5,,,,7bx,,8,,6,,1,,4,,3,,5,,2xh[16:5]/6xh[16:5],,
{16},,,,,,,7x<5[32:3]/4xh[16:5],,,,,,,,1x-5[32:3]/4xh[16:5],
{16},,,,,,,7x<5[32:3]/4x>2[32:3],,,,,,,,,
{16}2x/6x,,,,3-5[8:1],,,2/4,,1,,,3-7[8:1],,,2/4,
{16},1,,,3<6[8:1],,,4/2v5[8:1],,1,,,8>3[8:1],,,,
{16}7x/8,,,,6-4[8:1],,,7/5,,8,,,6-2[8:1],,,7/5,
{16},8,,,6>3[8:1],,,5/7v4[8:1],,8,,,1b<6[8:1],,,,
{16}2bx/1b,,,,3-5[8:1],,,2/4,,1,,,3-7[8:1],,,2/4,
{16},1,,,3<6[8:1],,,4/2v5[8:1],,1,,,8,,7,,
{16}4/6b,,3,,1/2b,,8,,3/7b,,4/5,,1b/6,,3/4,,
{16}5,3,7,,1/6,,2,4b/8b,
