&title=アオイトリ
&artist=「アオイトリ」オープニング
&wholebpm=
&first=0.00
&lv_1=
&lv_2=
&lv_3=
&lv_4=
&lv_5=12||12.5
&des_1=Tane
&des_2=Tane
&des_3=Tane
&des_4=Tane
&des_5=Tane
&des=Tane
&inote_5=
(115){4},,,,
{1},,,,,,,,{4},,
{4}4-7[8:1],2h[4:1],{8}4-2[8:1],,5,,
{4}6-2[8:1],7h[4:1],{8}4-7[8:1],,3,,
{4}2-7[8:1],1h[4:1],{8}7-2[8:1],,8,,
{8}1>6[8:1],,8,,
7<4[8:1],,2,{16}3,4,
{8}3h[4:1],4,5,6h[8:2],
,,7,8,
{4}1>6[8:1],8,7<3[8:1],2>1[4:3],
{1}6h[4:3],
{8}6,,,6^1[8:3],
,,,,
{8}3,,,3^8[8:3],
,,,,
{8}6p4[4:3],,,,
,,,,
{8}3,2,1,8,
,7,6,,
{8}4^1[8:4]/5h[8:3],,,,
,,,5,
{8}4h[8:3]/6^1[8:4],,,,
,,,4,
{8}2^7[8:4]/5h[8:3],,,,
4h[8:3],,,,
{16}15,,,,
37,,,6,{16}1,8,2,2,
6,1,7,2,
{16}8-6[8:1],,,,
3V51[8:3],,,,
6-8[8:1],,,,
,,,,
{16}1-3[8:1],,,,
6V48[8:3],,,,
3-1[8:1],,,,
,,,,
{16}6-8[8:1],,,,
3V51[8:3],,,,
8-6[8:1],,,,
,,,,
{16}3-1[8:1],,,,
6,,,,
6,5,6,,
3,4,2,5,
{16}1>5[8:1],,,,
8p6[8:3],,,,
5,,,,
3,,,,
{16}8<4[8:1],,,,
1q3[8:3],,,,
4,,,,
6,,,,
{16}7-4[8:1],,,,
78,,,,
2-5[8:1],,1,,
21,,8,,
{16}5/6-3[8:1],,,,
26,,,,
3-6[8:1],4,3,,
23,,,,
{16}1bw5[8:1],,,,
1,,,7,
5,6,,3,
4,3,4,,
{8}2^5[8:1]/5,14,6,7,
{16}7^4[8:1],4,7,,
3,,2,,
{8}2-5[8:1]/5,14,6,7,
{16}7-4[8:1],4,7,,
3,,2,,
{8}1>5[8:1]/5,84,6,7,
{16}7^4[8:1],4,7,,
2,,1,,
{8}1>4[8:1]/4,38,6,7,
{16}7-4[8:1],4,7,,
3,,2,,
{8}2^5[8:1]/5,1,28,7,
{16}7^4[8:1],4,7,,
78,,1,,
{8}2-5[8:1]/5,1,28,7,
{16}7-4[8:1],4,7,,
87,,1,,
{8}2^5[8:1]/5,1,28,7,
{8}7^4[8:1]/4,8,7/1-5[8:1],2,
{4}1b/8b-4[8:1],1bpp4[16:5]/8bqq5[16:5],,,
{8}1^4[8:1]/3,2,17,8,
{16}8^5[8:1],3,8,,
8^3[8:1]/2,,1,,
{8}8^5[8:1]/6,7,82,1,
{16}1^4[8:1],6,1,,
1^6[8:1]/7,,8,,
{8}1-4[8:1]/3,2,17,8,
{16}8-5[8:1],3,8,,
8-3[8:1]/2,,1,,
{8}8-5[8:1]/6,7,82,1,
{16}1-4[8:1],6,1,,
17,,8,,
{8}2-5[8:1]/1,3,12,7,
{16}6-1[8:1],5,6,,
56,,2,,
{8}7-4[8:1]/8,6,87,2,
{16}3-8[8:1],4,3,,
43,,7,,
{8}4-1[8:1]/1,25,6,7,
{8}5-8[8:1]/8,74,3-7[8:1],2,
{8}6-2[8:1]/3,5,36,4,
{16}3,4,3,,
6,5,6,5,
{4}7<3[8:1],3,{16}2>6[8:1],1,2,,
6,,,,
{4}8<3[8:1],2,{16}1,4,2,5,
3,6,4,7,
{4}5>8[8:1],{16},,7,7,
7,8,6,1,
5,2,4,3,
{8}1>5[8:1],8,17,,
{16}7-5[16:1],5v8[16:1],7,,
4,,2,,
{8}8<4[8:1],1,82,,
{16}2-4[16:1],4v1[16:1],2,,
5,,7,,
{8}1v4[8:1],8,17,6,
8v5[8:1],1,28,3,
{4}4qq7[4:7],,,,
{1},,,,,,,,,,,,,,,,E
