&title=Albireo
&artist=BlackY
&first=-0.5599998
&lv_5=14
&des_5=Hsuan Yu
&inote_5=
(139){4},{16},,,,,,,,,,,,4/5,
,,5h[16:19]/4h[16:19],{1},{4},6/5,
3/4,
{1}5h[8:7]/4h[8:7],
{4}4/5,3/2,1/8,7/6,
{16}5/4,,,5h[16:43]/4h[16:43],{1},,{4},,,{8}6/5,
6/5,6/5,4/3,4/3,4/3,2/1,2/1,
2/1,8/7,8/7,8/7,{16}1,8,1,8,1,8,1,8,
2>5[8:1],1,,8,,,{8}7,{16}2>5[8:1],1,,8,,,{8}7,
{16}2>5[8:1],1,,8,,,{8}7,3,4,5,6,
{16}7<4[8:1],8,,1,,,{8}2,{16}7<4[8:1],8,,1,,,{8}2,
{16}7<4[8:1],8,,1,,,{8}2,3,4/3h[4:1],{24},,5,6,{48},,,,{16}1/2>5[8:1],
8,,7,,,{8}6,{16}1/2>5[8:1],8,,7,,,{8}6,
{16}1/2>5[8:1],8,,7,,,{8}6,7/8,5/6,4/3,1/2,
{16}8/7<4[8:1],1,,2,,,{8}3,{16}8/7h[16:3],1,,2,,,{8}3h[16:3]/4h[16:3],
,1/2,7/8,5h[16:9]/4h[16:9],{16},,,,,,,,2/1,
3,4,2/8,,2/7,,2/6,,,4,3,,,{8}5,
{16}8h[16:3],,,5h[16:3],,,8,7,{8}6,{16}5,5,,1,2,3,
7/8,6,5,7/1,,7/2,,7/3,,,5,6,,,{8}4,
{16}2,3h[8:1],,6,,,{8}5,{4}3/4,5/6,
{16}2/1,3,4,2/8,,2/7,,2/6,,,4,3,{32},,,,5,,,7,
{16}8h[16:3],,,5h[16:3],,,{8}6,2>5[8:1],{16}3,2,,1,,,8/7h[16:3],
,,1,,,{8}2/3h[8:1],{4}4>1[8:1],{16}4,5,6,7,
{4}2/8h[4:1],3,7/1h[4:1],6,
{16}7/8,6,5,7/1,,7/2,,7/3,,,5,6,,,{8}4,
{16}1h[16:3],,,4h[16:3],,,1,2,{8}3,{16}4,4,,8,7,6,
2/1,3,4,2/8,,2/7,,2/6,,,4,3,,,{8}5,
{16}7,6h[8:1],,3,,,{8}4,{4}5/7,3/1,
{16}7/8h[16:5],,,6,,6,,3/2h[4:1],,,4,4,,6,,4/5h[4:1],
,,3,4,,3/1,,2/8,,7/1,,8/6,,7/5,,,2,
1,2,8,2,7,2,6,3,4,3,5,3,6,3,7,
{4}5h[16:3]/2h[16:3],7h[16:3]/4h[16:3],{32}5,4,5,4,5,4,5,4,5,4,5,4,5,4,5,4,
{8}5b,6,7,{16}8<5[8:1],8,,4,3,2,{8}1-5[8:1],4,
,3,2,{16}1>4[8:1],1,,5,6,7,{8}8-4[8:1],7`3,
5,6,7,{16}8<5[8:1],8,,4,3,2,{8}1-5[8:1],4,
1,{16}7-4[8:1],6,,2-5[8:1],{8}3,{16}8-4[8:1],7,,8,1,2,{8}3,
5,6,7,{16}8<5[8:1],8,,4,3,2,{8}1-5[8:1],4,
,3,2,{16}1>4[8:1],1,,5,6,7,{8}8-4[8:1],3/7,
8,1,2,{16}5,6,,7,6,5,1,2,3,4,
5/6,,,4h[4:1]/3h[4:1],,,,,2/1,,,7h[8:1]/8h[8:1],,,{8}6/2,
,7/2-6[16:1],1/4,2/7-3[16:1],8/5,7/2-5[16:1],1/6,2/7-4[16:1],
8/3,7/2,3/1,6/8,{16}8/4,7/3,2/6,5/1,8/4,1/5,2/6,3/7,
{2}4>1[8:1]/8<5[8:1],{8}4b/8b,2>5[8:1]/6<1[8:1],,6b/2b,
{16},,2,3>8[8:1],,4,,3,,,6,7<4[8:1],,8,,7,
,,2,3>8[8:1],,4,,3,,,{8}7/5,6/4,5/3,
4/2,{16}5/6,5/6,,2/4,3/5,4/6,{8}5/7,{16}3,4,{24}3,4,3,4,3,4,
{16}2,3,4,5,3,4,5,6,4,5,6,7,{8}3/5,4/6,
{16}5/7,,,6<1[8:1],,5,,6,,,3,2>5[8:1],,1,,2,
,,7,6<1[8:1],,5,,6,,,{8}4/2,3/5,{64}4/6,,,,,,,4,
2,,,,,,,,,,,5,{16}7,,,{8}1/3,6/8,{16}7,8,{24}7,8,7,8,7,8,
{16}6,5,4,3,2,1,8,7,6/5,,,3/4,,,{8}2b/7b,
{16},,5,6/5>2[8:1],,7,,5/8,,,5,4/5<8[8:1],,3,,2/5,
,,3,4/3>8[8:1],,5,,6/3,,,{8}7/4,6/3,5/2,
{16}4/1,,,3/4<7[8:1],,2,,4/1,,,4,5/4>1[8:1],,6,,7/4,
,,6,5/6<1[8:1],,4,,3/6,,2,{48},,{24}7h[24:1],8,{16}2/1,3,4,5,
6<1[8:1],,,4/3,,5,,2>5[8:1],,7,8,2/1,,,{8}7/6,
3/4,{16}7,8/7,,1,,4/7,,5/2,,6/3,,,{8}1/8,
{16}6b/2b,,,3b/7b,,,3,4,5,6,5,4,6,5,3,6,
5,2,6,5,2,1,6,8,6,7,6,5b,,,{8}4b,
{16}3b,,,3b,,1,2,3,4,6,5,4,6,5,4,3,
6,{32}3,2,{16}1,6,1,8,6,7-4[16:3]/2-5[16:3],,,{8}6b/3b,{16},,,,8b/1b,
4,3,5,6,7,4,3,,3,,5,{8}6,{16}5,2,
4,5,6,4,5,6,4,7,4,6,4,7,8,1,2,3,
5/4,6,5,4,5,3,5,2,,8,1,8,7,6,5,4,
2b/3b,,,5b/6b,,,{8}6b/7b,{16},2b/1b,,,{4}2-7[16:1]*-7[16:1],
{16}2b,,,5/4,,5,4,3,6,7,4,3,6,7,4,3,
6,7,4,3,6,7,4,3,6,5,6,8,7,8,7,6,
5,4,3,2,4,3,2,4,3,2,4,3,2,4,1,8,
1,4,3,2,4,3,2,1,{8}8/7,4/3,2/1,6/5,
{16}7/4,6,5,4/7,,6,5,4,1,6,5,4,1,6,5,4,
1,6,5,4,1,6,5,4,{8}3/2,7/6,5/4,8/1,
{16}8,3,2,1,{32},,6,7,{16}8,2,7,3,6,4,5,3,6,4,
5,6,4,3,6,5,4,3,7/2,6,5,4,6/3,5,4,3,
1/2>5[8:1],,,8/7,,,{8}6,{16}8/7<4[8:1],,,1/2,,,{8}3,
{16},,6,5,6,5,6,5,{24}4,5,4,5,4,5,4,3,4,3,4,3,
{16}2/1-5[8:1],,,8/7,,,{8}4,{16}7/8-4[8:1],,,1/2,,,{8}5,
{64},,,,,,,,2,1,,,{16}2,,8,7,6,4,3,{32},,2,1,{16}2,5,6,7,
1/4-7[8:1],,,3/8,,,{8}2,{16}8/5-2[8:1],,,6/1,,,{8}7,
{16}4-8[32:3]/5-1[32:3],,,3/6,,,{8}7/2,{64},,,,,,,8,{16}1,7,,1,2,3,
8,7,6,2,3,4,7,6,5,3,4,5,7,6,5,4,
2,1,,1,2,3,4,8,7,6,5,1,2,3,4,5,
6,7,5,2,3,4,6,5,{8}4/3,6/5,5/4,{16}4,3,
7,6,5,3,4,6,7,2,3,5,6,7,2,3,4,5,
{8}6>3[4:1],{16},,,,,,,,4,5,6,7,8,1,
{8}2h[8:3],{24},,,,,,4,3,2,{16}1h[16:3],,,8h[16:3],,,{8}7,
{16}5/6h[8:3],,,4,,,{8}3h[8:3],,,{4}4,
{16}6/3h[16:3],,,5,,,{8}3/6h[8:1],{2}4-7[8:1],
{4}5/6h[4:1],{64}4,,,,,,,,,,,,,,,4,{4}3h[4:1],{64}5,,,,,,,,,,,,,,,7,
{16}6h[16:3],,,5,,,{8}3h[4:1],{24},,,5,4,5,4,5,4,5,4,{192}5,,,,,2,,,{16}3h[16:3],
,,4,,,{8}6,,,{4}7-4[16:1]/2-5[16:1],
{8}2b/7b,6,6,3/6,3,3,3/6,{16}5,5,
{8}3/6,{16}4,4,{8}3/6,7/2,{16}1,8,1,8,1,8,1,8,
2b,3,6,7,,5,4,5,3b,6,4,7b,,5,{8}2b,
{16}6,5,4,3,7b/2b,6,4,6,4,7,5,2,,2,{8}5,
{16}3,4,5,6,,3,5,3,5,2,4,7,,5,{8}3/2,
1/2,8/1,7/8,7/6,{16}5,6,{32}5,6,5,6,{16}3,4,5,6,
7,6,5,3/4,,3/4,,3/4,1,7,5,3h[16:3],,,{8}1,
{16}2,3,4,6/5,,6/5,,6/5,8,2,4,6h[16:3],,,{8}8,
{16}7,8,7,6,2,1,2,3,7,6,5,4,3,2,{8}8/1,
7/8,4/3,5/6,2/1,{16}8,8,8,8,8,8,8,8,
3,5>2[8:1],7,1,,5,,,6,4<7[8:1],2,8,,4,,,{8}3,
{16}6/4,5-1[8:1],,2/8,{8}1-5[8:1],2,8,6,4,
{16}6,4,5,3,,2-6[8:1],,4,,1/2,8,7,,4,{8}5,
6,{16}7,8,7,8,7,8,7,8,7,1-6[8:1],,,{8}2,
8,{16}2,1,2,1,2,3,4-7[16:1],,,1-4[16:1],,,{8}4,
{16}6,5,6,5>2[16:1],,7,{8}8<5[16:1],1>4[16:1],8-4[16:1],1-5[16:1],8,
{16}1>4[16:1]/8<5[16:1],,,1-5[16:1]/8-4[16:1],,,{8}8/1,{16},,3,2,1,6,7,8,
{32}1,8,1,8,1,8,1,8,1,8,1,8,1,8,1,8,{16}7/4-8[16:3],,,2/5-1[16:1],,,{8}5b,
{16},,2-5[8:1],2-6[16:1],,7/8,,2,,,7-4[8:1],7-3[16:1],,2/1,,7,
,,1-4[8:1],1-5[16:1],,2/8,,1,,,{8}8-4[16:1]/7-3[16:1],2-6[16:1]/1-5[16:1],8/7,
2/1,{16}8,7>2[8:1],,6,5,4,{8}3,{16}4,3,{24}4,3,4,3,4,3,
{16}2>5[16:1],1,8,7,2-6[16:1],1,8,7,2,1,8,7,{8}6/3,5/2,
{16}4/7,,,7-3[16:1],,2/1,,7,,,2-5[8:1],2-6[16:1],,7/8,,2,
,,8-5[8:1],8-4[16:1],,7/1,,8,,,{8}3-6[16:1]/7-2[16:1],4/8,{64}3/7,,,,,,,8>3[16:1],
4<7[64:3],,,,,,,,,,,8-5[16:1],{16}4-1[64:3],,,{8}4/8,2/6,{16}7,3,{32}7,3,7,3,7,3,7,3,
{16}6,2,5,1,4,8,3,7,2-6[16:3],,,3-7[16:1],,,{8}3b,
{16},,8<5[8:1],7/8-4[16:1],,2/3-8[16:1],,8,,,1>4[8:1],2/1-5[16:1],,7/6-1[16:1],,1,
,,8<5[8:1],7/8-4[16:1],,2/3-8[16:1],,8,,,{8}7<4[16:1],3>8[16:1],7,
{16}3,,,3/4-8[16:1],,6/7-4[16:1],,4,,,5<8[8:1],6/5-1[16:1],,3/2-5[16:1],,5,
,,4>1[8:1],3/4-8[16:1],,6/7-4[16:1],,4,,7/6,,2/3,,,{8}1/8,
{16}2>5[16:1],,,8<5[16:1],,1,,8/2,,1,{24}4,3,2<7[24:1],{16}1,6,2,{32}5,4,
{8}3-7[16:1],{16}4,5-1[16:1],,4-8[16:1],,5>2[16:1],,4<7[16:1],,5,,,{8}1,
{16}2b/5b,,,4b/7b,{48},,,,,,{24}6/2,5,4,3,2,1,8/4,5,6,7,8,1,2/6,5,4,
3,2,1,8/4,5,6,7,8,1,2/6,5,4,3,2,1,8/4,{48},{16}7b/5b,,,{8}4b/2b,
{16}1b/8b,,,6b/3b,
E
